Классический форум-трекер
canvas not supported
Нас вместе: 4 079 490

Eric Church - 4 альбома (2006-2014) [FLAC|Lossless]<Country>


 
 
RSS
Начать новую тему   Ответить на тему    Торрент-трекер NNM-Club -> Other Styles -> Folk (Lossless)
Автор Сообщение
Merseph ®
Стаж: 5 лет 7 мес.
Сообщений: 32
Ratio: 7,805
Поблагодарили: 1210
100%
vietnam.gif
Eric Church - 4 альбома (2006-2014)

Жанр: Country
Период: 2006-2014
Страна: US
Аудио кодек: FLAC (*.flac)
Тип рипа: tracks+.cue
Битрейт аудио: lossless
Источник: what.cd
Продолжительность: 03:01:03

Продолжительность: 00:47:03
Издатель (лейбл): Capitol Nashville
Номер по каталогу: 72435-60745-2-1
Релизер: someguru20
Треклист:
01. Before She Does (3:19)
02. Sinners Like Me (3:53)
03. How 'Bout You (3:51)
04. These Boots (3:48)
05. What I Almost Was (3:21)
06. The Hard Way (3:34)
07. Guys Like Me (3:11)
08. Lightning (5:17)
09. Can't Take It With You (4:26)
10. Pledge Allegiance To The Hag (Featuring Merle Haggard) (4:26)
11. Two Pink Lines (3:28)
12. Livin' Part Of Life (4:29)

Код:

Exact Audio Copy V0.99 prebeta 5 from 4. May 2009

EAC extraction logfile from 8. July 2010, 12:25

Eric Church / Sinners Like Me

Used drive  : PIONEER DVD-R-120R  Adapter: 2  ID: 0

Read mode               : Secure
Utilize accurate stream : Yes
Defeat audio cache      : Yes
Make use of C2 pointers : No

Read offset correction                      : 30
Overread into Lead-In and Lead-Out          : No
Fill up missing offset samples with silence : Yes
Delete leading and trailing silent blocks   : No
Null samples used in CRC calculations       : Yes
Used interface                              : Native Win32 interface for Win NT & 2000
Gap handling                                : Appended to previous track

Used output format              : User Defined Encoder
Selected bitrate                : 128 kBit/s
Quality                         : High
Add ID3 tag                     : No
Command line compressor         : C:\Program Files\Exact Audio Copy\FLAC\FLAC.EXE
Additional command line options : -V -1 -T "artist=%a" -T "title=%t" -T "album=%g" -T "date=%y" -T "tracknumber=%n" -T "genre=%m" %s

TOC of the extracted CD

     Track |   Start  |  Length  | Start sector | End sector
    ---------------------------------------------------------
        1  |  0:00.00 |  3:19.22 |         0    |    14946
        2  |  3:19.22 |  3:53.27 |     14947    |    32448
        3  |  7:12.49 |  3:50.66 |     32449    |    49764
        4  | 11:03.40 |  3:48.07 |     49765    |    66871
        5  | 14:51.47 |  3:21.09 |     66872    |    81955
        6  | 18:12.56 |  3:33.46 |     81956    |    97976
        7  | 21:46.27 |  3:11.04 |     97977    |   112305
        8  | 24:57.31 |  5:16.64 |    112306    |   136069
        9  | 30:14.20 |  4:25.66 |    136070    |   156010
       10  | 34:40.11 |  4:25.51 |    156011    |   175936
       11  | 39:05.62 |  3:28.32 |    175937    |   191568
       12  | 42:34.19 |  4:29.13 |    191569    |   211756

Track  1

     Filename D:\Eric Church\Sinners Like Me - 2006\01 - Before She Does.wav

     Pre-gap length  0:00:02.00

     Peak level 99.9 %
     Track quality 100.0 %
     Test CRC D802844C
     Copy CRC D802844C
     Accurately ripped (confidence 16)  [fa339ee7]
     Copy OK

Track  2

     Filename D:\Eric Church\Sinners Like Me - 2006\02 - Sinners Like Me.wav

     Peak level 99.8 %
     Track quality 100.0 %
     Test CRC 87D4646C
     Copy CRC 87D4646C
     Accurately ripped (confidence 16)  [327d6b95]
     Copy OK

Track  3

     Filename D:\Eric Church\Sinners Like Me - 2006\03 - How 'Bout You.wav

     Pre-gap length  0:00:00.36

     Peak level 99.9 %
     Track quality 100.0 %
     Test CRC 610D0296
     Copy CRC 610D0296
     Accurately ripped (confidence 15)  [a9ae8031]
     Copy OK

Track  4

     Filename D:\Eric Church\Sinners Like Me - 2006\04 - These Boots.wav

     Peak level 99.9 %
     Track quality 100.0 %
     Test CRC 98FDDB53
     Copy CRC 98FDDB53
     Accurately ripped (confidence 15)  [21f9e504]
     Copy OK

Track  5

     Filename D:\Eric Church\Sinners Like Me - 2006\05 - What I Almost Was.wav

     Peak level 99.9 %
     Track quality 100.0 %
     Test CRC D4574E08
     Copy CRC D4574E08
     Accurately ripped (confidence 16)  [f92e05a0]
     Copy OK

Track  6

     Filename D:\Eric Church\Sinners Like Me - 2006\06 - The Hard Way.wav

     Peak level 97.6 %
     Track quality 100.0 %
     Test CRC 5923E43B
     Copy CRC 5923E43B
     Accurately ripped (confidence 16)  [377b18f6]
     Copy OK

Track  7

     Filename D:\Eric Church\Sinners Like Me - 2006\07 - Guys Like Me.wav

     Pre-gap length  0:00:01.48

     Peak level 99.9 %
     Track quality 100.0 %
     Test CRC 3F4ED5D7
     Copy CRC 3F4ED5D7
     Accurately ripped (confidence 16)  [10d22548]
     Copy OK

Track  8

     Filename D:\Eric Church\Sinners Like Me - 2006\08 - Lightning.wav

     Peak level 90.0 %
     Track quality 100.0 %
     Test CRC A179EAB8
     Copy CRC A179EAB8
     Accurately ripped (confidence 15)  [e3130d7c]
     Copy OK

Track  9

     Filename D:\Eric Church\Sinners Like Me - 2006\09 - Can't Take It With You.wav

     Pre-gap length  0:00:02.10

     Peak level 95.4 %
     Track quality 100.0 %
     Test CRC 89C2F332
     Copy CRC 89C2F332
     Accurately ripped (confidence 15)  [fb8dcee8]
     Copy OK

Track  10

     Filename D:\Eric Church\Sinners Like Me - 2006\10 - Pledge Allegiance To The Hag (Featuring Merle Haggard).wav

     Pre-gap length  0:00:00.56

     Peak level 99.0 %
     Track quality 100.0 %
     Test CRC 1CE576DC
     Copy CRC 1CE576DC
     Accurately ripped (confidence 15)  [6630cdf2]
     Copy OK

Track  11

     Filename D:\Eric Church\Sinners Like Me - 2006\11 - Two Pink Lines.wav

     Peak level 96.4 %
     Track quality 100.0 %
     Test CRC D8DE1F7C
     Copy CRC D8DE1F7C
     Accurately ripped (confidence 16)  [cc00fad7]
     Copy OK

Track  12

     Filename D:\Eric Church\Sinners Like Me - 2006\12 - Livin' Part Of Life.wav

     Pre-gap length  0:00:01.42

     Peak level 93.2 %
     Track quality 100.0 %
     Test CRC FC2357F4
     Copy CRC FC2357F4
     Accurately ripped (confidence 14)  [ef7576d1]
     Copy OK

All tracks accurately ripped

No errors occurred

End of status report
Код:

REM GENRE Country
REM DATE 2006
PERFORMER "Eric Church"
TITLE "Sinners Like Me"
FILE "01 - Before She Does.wav" WAVE
  TRACK 01 AUDIO
    TITLE "Before She Does"
    PERFORMER "Eric Church"
    INDEX 01 00:00:00
FILE "02 - Sinners Like Me.wav" WAVE
  TRACK 02 AUDIO
    TITLE "Sinners Like Me"
    PERFORMER "Eric Church"
    INDEX 01 00:00:00
  TRACK 03 AUDIO
    TITLE "How 'Bout You"
    PERFORMER "Eric Church"
    INDEX 00 03:52:66
FILE "03 - How 'Bout You.wav" WAVE
    INDEX 01 00:00:00
FILE "04 - These Boots.wav" WAVE
  TRACK 04 AUDIO
    TITLE "These Boots"
    PERFORMER "Eric Church"
    INDEX 01 00:00:00
FILE "05 - What I Almost Was.wav" WAVE
  TRACK 05 AUDIO
    TITLE "What I Almost Was"
    PERFORMER "Eric Church"
    INDEX 01 00:00:00
FILE "06 - The Hard Way.wav" WAVE
  TRACK 06 AUDIO
    TITLE "The Hard Way"
    PERFORMER "Eric Church"
    INDEX 01 00:00:00
  TRACK 07 AUDIO
    TITLE "Guys Like Me"
    PERFORMER "Eric Church"
    INDEX 00 03:31:73
FILE "07 - Guys Like Me.wav" WAVE
    INDEX 01 00:00:00
FILE "08 - Lightning.wav" WAVE
  TRACK 08 AUDIO
    TITLE "Lightning"
    PERFORMER "Eric Church"
    INDEX 01 00:00:00
  TRACK 09 AUDIO
    TITLE "Can't Take It With You"
    PERFORMER "Eric Church"
    INDEX 00 05:14:54
FILE "09 - Can't Take It With You.wav" WAVE
    INDEX 01 00:00:00
  TRACK 10 AUDIO
    TITLE "Pledge Allegiance To The Hag (Featuring Merle Haggard)"
    PERFORMER "Eric Church"
    INDEX 00 04:25:10
FILE "10 - Pledge Allegiance To The Hag (Featuring Merle Haggard).wav" WAVE
    INDEX 01 00:00:00
FILE "11 - Two Pink Lines.wav" WAVE
  TRACK 11 AUDIO
    TITLE "Two Pink Lines"
    PERFORMER "Eric Church"
    INDEX 01 00:00:00
  TRACK 12 AUDIO
    TITLE "Livin' Part Of Life"
    PERFORMER "Eric Church"
    INDEX 00 03:26:65
FILE "12 - Livin' Part Of Life.wav" WAVE
    INDEX 01 00:00:00
Код:

-----------------------

DON'T MODIFY THIS FILE

-----------------------

PERFORMER: auCDtect Task Manager, ver. 1.6.0 RC1 build 1.6.0.1
Copyright (c) 2008-2010 y-soft. All rights reserved
http://y-soft.org

ANALYZER: auCDtect: CD records authenticity detector, version 0.8.2
Copyright (c) 2004 Oleg Berngardt. All rights reserved.
Copyright (c) 2004 Alexander Djourik. All rights reserved.

FILE: 12 - Livin' Part Of Life.flac
  Size: 32897218 Hash: BA23FD274F0C753CD86EE4C97AF3DA91 Accuracy: -m0
  Conclusion: CDDA 100%
  Signature: 60FA55252829B4D47DBADD644CB38BDC8F1E6DF7
FILE: 11 - Two Pink Lines.flac
  Size: 29062204 Hash: 185A257913F04B17063AC849E3A92915 Accuracy: -m0
  Conclusion: MPEG 79%
  Signature: 536ED95A1F74FD95D3A448FE241B0B5EA7D67490
FILE: 10 - Pledge Allegiance To The Hag (Featuring Merle Haggard).flac
  Size: 33789604 Hash: 9767B68EAC63B9D27FC01A63BC6BA390 Accuracy: -m0
  Conclusion: CDDA 100%
  Signature: FFF00A9201F252BB015C1846650B5324398E4CAB
FILE: 09 - Can't Take It With You.flac
  Size: 31948022 Hash: 5A6B28D24750349A97B38249D0E16202 Accuracy: -m0
  Conclusion: CDDA 100%
  Signature: E9DBB8C53B9AC2231D95A45DA4F6B8F93F7D1C5F
FILE: 08 - Lightning.flac
  Size: 35983002 Hash: 71F4AA8E9A012B9EDF4DD7BC9492A3E0 Accuracy: -m0
  Conclusion: CDDA 100%
  Signature: 31AD730C38B7EFD89C74E4E7F2E06B738A586639
FILE: 07 - Guys Like Me.flac
  Size: 25332465 Hash: C60F0F07E5AB921F33096C216AD48980 Accuracy: -m0
  Conclusion: CDDA 100%
  Signature: D83A74DBF3D4EF55005C5AFC505DE66C73840EA3
FILE: 06 - The Hard Way.flac
  Size: 23804461 Hash: 03F7D3713DB48AA027F6F74008F67E93 Accuracy: -m0
  Conclusion: CDDA 100%
  Signature: 4A7D2B20D20D5F748D2B025E4A279ED2E4F6F18B
FILE: 05 - What I Almost Was.flac
  Size: 26417810 Hash: 4D34EBA4FFACBCCBF31258BD36E8E7FC Accuracy: -m0
  Conclusion: CDDA 100%
  Signature: 7B5BEB7FE3FA91C5F8F47E4853FC2C549C5175DD
FILE: 04 - These Boots.flac
  Size: 26498913 Hash: 7FA97C7418F7C63CA175CFCFC32757DD Accuracy: -m0
  Conclusion: CDDA 100%
  Signature: AD5973186AE1E251FA6671C8AAF61C5ABA9AE304
FILE: 03 - How 'Bout You.flac
  Size: 29760567 Hash: 05E7D390985A040D05315D21DEEDD31A Accuracy: -m0
  Conclusion: CDDA 100%
  Signature: E6B93BFA58186998ADBEC596AAD3BC54DD7943B8
FILE: 02 - Sinners Like Me.flac
  Size: 27364566 Hash: 5A03279C0DC5732A4476738261E12653 Accuracy: -m0
  Conclusion: CDDA 99%
  Signature: 74A26495CE01319F6FABD98F27B35D4CA1229B5E
FILE: 01 - Before She Does.flac
  Size: 25462702 Hash: 49EB31607C075D3CE171649B66B07DD0 Accuracy: -m0
  Conclusion: CDDA 100%
  Signature: D4127F778E52BF343BB12CA4E5FEFFD151F432C4
Продолжительность: 00:43:27
Издатель (лейбл): Capitol Nashville
Номер по каталогу: 509995-20810-2-6
Релизер: jairtime
Треклист:
01. Aint't Killed Me Yet (3:23)
02. Lotta Boot Left To Fill (3:24)
03. Young And Wild (3:16)
04. Where She Told Me To Go (4:48)
05. Longer Gone (3:09)
06. Love Your Love The Most (2:50)
07. Smoke A Little Smoke (3:11)
08. Without You Here (2:43)
09. You Make It Look So Easy (4:15)
10. Carolina (4:39)
11. Hell On The Heart (2:45)
12. Those I've Loved (5:04)

Код:

Exact Audio Copy V0.99 prebeta 4 from 23. January 2008

EAC extraction logfile from 14. March 2010, 0:26

Eric Church / Carolina

Used drive  : ATAPI   iHDS118   4   Adapter: 1  ID: 1

Read mode               : Secure
Utilize accurate stream : Yes
Defeat audio cache      : Yes
Make use of C2 pointers : No

Read offset correction                      : 6
Overread into Lead-In and Lead-Out          : No
Fill up missing offset samples with silence : Yes
Delete leading and trailing silent blocks   : No
Null samples used in CRC calculations       : Yes
Used interface                              : Installed external ASPI interface
Gap handling                                : Appended to previous track

Used output format              : User Defined Encoder
Selected bitrate                : 768 kBit/s
Quality                         : High
Add ID3 tag                     : No
Command line compressor         : C:\Program Files\Exact Audio Copy\FLAC\FLAC.EXE
Additional command line options : -8 -A tukey(0.25) -A gauss(0.1875) -b 4096 -V -T "artist=%a" -T "title=%t" -T "album=%g" -T "date=%y" -T "tracknumber=%n" -T "genre=%m" %s --sector-align

TOC of the extracted CD

     Track |   Start  |  Length  | Start sector | End sector
    ---------------------------------------------------------
        1  |  0:00.00 |  3:22.59 |         0    |    15208
        2  |  3:22.59 |  3:24.06 |     15209    |    30514
        3  |  6:46.65 |  3:15.69 |     30515    |    45208
        4  | 10:02.59 |  4:48.22 |     45209    |    66830
        5  | 14:51.06 |  3:08.47 |     66831    |    80977
        6  | 17:59.53 |  2:50.29 |     80978    |    93756
        7  | 20:50.07 |  3:11.25 |     93757    |   108106
        8  | 24:01.32 |  2:42.39 |    108107    |   120295
        9  | 26:43.71 |  4:15.21 |    120296    |   139441
       10  | 30:59.17 |  4:39.06 |    139442    |   160372
       11  | 35:38.23 |  2:44.55 |    160373    |   172727
       12  | 38:23.03 |  5:03.55 |    172728    |   195507

Track  1

     Filename F:\My FLAC Rips\Eric Church FLAC\Eric Church - Carolina\01-Aint't Killed Me Yet.wav

     Pre-gap length  0:00:02.00

     Peak level 99.9 %
     Track quality 100.0 %
     Test CRC CEA65845
     Copy CRC CEA65845
     Accurately ripped (confidence 4)  [0A367B83]
     Copy OK

Track  2

     Filename F:\My FLAC Rips\Eric Church FLAC\Eric Church - Carolina\02-Lotta Boot Left To Fill.wav

     Peak level 99.9 %
     Track quality 100.0 %
     Test CRC 1D3D34E3
     Copy CRC 1D3D34E3
     Accurately ripped (confidence 4)  [767F06D0]
     Copy OK

Track  3

     Filename F:\My FLAC Rips\Eric Church FLAC\Eric Church - Carolina\03-Young And Wild.wav

     Pre-gap length  0:00:00.84

     Peak level 99.9 %
     Track quality 99.9 %
     Test CRC 4B509AE3
     Copy CRC 4B509AE3
     Accurately ripped (confidence 4)  [1B2DDAF9]
     Copy OK

Track  4

     Filename F:\My FLAC Rips\Eric Church FLAC\Eric Church - Carolina\04-Where She Told Me To Go.wav

     Pre-gap length  0:00:01.00

     Peak level 99.9 %
     Track quality 100.0 %
     Test CRC 6493FBD3
     Copy CRC 6493FBD3
     Accurately ripped (confidence 4)  [D5904DD6]
     Copy OK

Track  5

     Filename F:\My FLAC Rips\Eric Church FLAC\Eric Church - Carolina\05-Longer Gone.wav

     Peak level 99.9 %
     Track quality 99.9 %
     Test CRC 819D3A93
     Copy CRC 819D3A93
     Accurately ripped (confidence 4)  [F2634EDF]
     Copy OK

Track  6

     Filename F:\My FLAC Rips\Eric Church FLAC\Eric Church - Carolina\06-Love Your Love The Most.wav

     Pre-gap length  0:00:01.93

     Peak level 92.3 %
     Track quality 100.0 %
     Test CRC 115ED026
     Copy CRC 115ED026
     Accurately ripped (confidence 4)  [AC2BDD71]
     Copy OK

Track  7

     Filename F:\My FLAC Rips\Eric Church FLAC\Eric Church - Carolina\07-Smoke A Little Smoke.wav

     Pre-gap length  0:00:01.53

     Peak level 99.9 %
     Track quality 100.0 %
     Test CRC DBFEABC1
     Copy CRC DBFEABC1
     Accurately ripped (confidence 4)  [8A96BB0E]
     Copy OK

Track  8

     Filename F:\My FLAC Rips\Eric Church FLAC\Eric Church - Carolina\08-Without You Here.wav

     Pre-gap length  0:00:00.50

     Peak level 99.9 %
     Track quality 100.0 %
     Test CRC B0753FE4
     Copy CRC B0753FE4
     Accurately ripped (confidence 4)  [3DA243A0]
     Copy OK

Track  9

     Filename F:\My FLAC Rips\Eric Church FLAC\Eric Church - Carolina\09-You Make It Look So Easy.wav

     Pre-gap length  0:00:00.93

     Peak level 94.4 %
     Track quality 100.0 %
     Test CRC 9CE1E4B8
     Copy CRC 9CE1E4B8
     Accurately ripped (confidence 4)  [768E3AE6]
     Copy OK

Track 10

     Filename F:\My FLAC Rips\Eric Church FLAC\Eric Church - Carolina\10-Carolina.wav

     Peak level 99.9 %
     Track quality 100.0 %
     Test CRC 61DBFF46
     Copy CRC 61DBFF46
     Accurately ripped (confidence 4)  [190F1154]
     Copy OK

Track 11

     Filename F:\My FLAC Rips\Eric Church FLAC\Eric Church - Carolina\11-Hell On The Heart.wav

     Pre-gap length  0:00:00.01

     Peak level 99.9 %
     Track quality 100.0 %
     Test CRC 051582D8
     Copy CRC 051582D8
     Accurately ripped (confidence 4)  [6152B0E4]
     Copy OK

Track 12

     Filename F:\My FLAC Rips\Eric Church FLAC\Eric Church - Carolina\12-Those I've Loved.wav

     Pre-gap length  0:00:00.13

     Peak level 99.9 %
     Track quality 100.0 %
     Test CRC 4E856FA7
     Copy CRC 4E856FA7
     Accurately ripped (confidence 4)  [46534A38]
     Copy OK

All tracks accurately ripped

No errors occurred

End of status report
Код:

REM GENRE Country
REM DATE 2009
REM DISCID 7F0A2E0C
REM COMMENT "ExactAudioCopy v0.99pb4"
PERFORMER "Eric Church"
TITLE "Carolina"
FILE "01-Aint't Killed Me Yet.wav" WAVE
  TRACK 01 AUDIO
    TITLE "Aint't Killed Me Yet"
    PERFORMER "Eric Church"
    INDEX 01 00:00:00
FILE "02-Lotta Boot Left To Fill.wav" WAVE
  TRACK 02 AUDIO
    TITLE "Lotta Boot Left To Fill"
    PERFORMER "Eric Church"
    INDEX 01 00:00:00
  TRACK 03 AUDIO
    TITLE "Young And Wild"
    PERFORMER "Eric Church"
    INDEX 00 03:23:18
FILE "03-Young And Wild.wav" WAVE
    INDEX 01 00:00:00
  TRACK 04 AUDIO
    TITLE "Where She Told Me To Go"
    PERFORMER "Eric Church"
    INDEX 00 03:14:69
FILE "04-Where She Told Me To Go.wav" WAVE
    INDEX 01 00:00:00
FILE "05-Longer Gone.wav" WAVE
  TRACK 05 AUDIO
    TITLE "Longer Gone"
    PERFORMER "Eric Church"
    INDEX 01 00:00:00
  TRACK 06 AUDIO
    TITLE "Love Your Love The Most"
    PERFORMER "Eric Church"
    INDEX 00 03:06:52
FILE "06-Love Your Love The Most.wav" WAVE
    INDEX 01 00:00:00
  TRACK 07 AUDIO
    TITLE "Smoke A Little Smoke"
    PERFORMER "Eric Church"
    INDEX 00 02:48:64
FILE "07-Smoke A Little Smoke.wav" WAVE
    INDEX 01 00:00:00
  TRACK 08 AUDIO
    TITLE "Without You Here"
    PERFORMER "Eric Church"
    INDEX 00 03:10:62
FILE "08-Without You Here.wav" WAVE
    INDEX 01 00:00:00
  TRACK 09 AUDIO
    TITLE "You Make It Look So Easy"
    PERFORMER "Eric Church"
    INDEX 00 02:41:44
FILE "09-You Make It Look So Easy.wav" WAVE
    INDEX 01 00:00:00
FILE "10-Carolina.wav" WAVE
  TRACK 10 AUDIO
    TITLE "Carolina"
    PERFORMER "Eric Church"
    INDEX 01 00:00:00
  TRACK 11 AUDIO
    TITLE "Hell On The Heart"
    PERFORMER "Eric Church"
    INDEX 00 04:39:05
FILE "11-Hell On The Heart.wav" WAVE
    INDEX 01 00:00:00
  TRACK 12 AUDIO
    TITLE "Those I've Loved"
    PERFORMER "Eric Church"
    INDEX 00 02:44:45
FILE "12-Those I've Loved.wav" WAVE
    INDEX 01 00:00:00
Код:

-----------------------

DON'T MODIFY THIS FILE

-----------------------

PERFORMER: auCDtect Task Manager, ver. 1.6.0 RC1 build 1.6.0.1
Copyright (c) 2008-2010 y-soft. All rights reserved
http://y-soft.org

ANALYZER: auCDtect: CD records authenticity detector, version 0.8.2
Copyright (c) 2004 Oleg Berngardt. All rights reserved.
Copyright (c) 2004 Alexander Djourik. All rights reserved.

FILE: 12-Those I've Loved.flac
  Size: 32842867 Hash: 564A985CAB0B2DA55FA05D2F0FE863F4 Accuracy: -m0
  Conclusion: CDDA 100%
  Signature: 79BCA75C2047E2483C927212697BCE5607FC0F5E
FILE: 11-Hell On The Heart.flac
  Size: 20669401 Hash: F5767CA16BF325184D9338A0AC398085 Accuracy: -m0
  Conclusion: CDDA 100%
  Signature: A2C0010F45DDDD7C9AB3F69EACB5063E6DF6F1E1
FILE: 10-Carolina.flac
  Size: 30908750 Hash: 8C39AACFA9B6B560A406592F0860CFBE Accuracy: -m0
  Conclusion: CDDA 100%
  Signature: 1C019AC214B515542E236A5FCD93605BA3BF650F
FILE: 09-You Make It Look So Easy.flac
  Size: 25583366 Hash: 5D1C78270FAC7372F5C4F06B16242E0C Accuracy: -m0
  Conclusion: CDDA 100%
  Signature: DF7597A41BF8669E630FF3C75702F95CEE10DC60
FILE: 08-Without You Here.flac
  Size: 20514070 Hash: 986870395B9DC0F1F010B41C3BE28503 Accuracy: -m0
  Conclusion: CDDA 100%
  Signature: 40FC8F34D4A6C57895479CC2882E30678934153E
FILE: 07-Smoke A Little Smoke.flac
  Size: 21853671 Hash: D450F6EB69CF63FC1A7F9ED9B3CAF1D3 Accuracy: -m0
  Conclusion: CDDA 100%
  Signature: 8890320F930799DAD4CBAF0D722C8872EE582D9B
FILE: 06-Love Your Love The Most.flac
  Size: 19139288 Hash: E8BA7ABE5206FF3AF93CD730A0501E8C Accuracy: -m0
  Conclusion: CDDA 99%
  Signature: 6B3E05AE2E52E764B181430D7AA7BB5FC31902A3
FILE: 05-Longer Gone.flac
  Size: 21780368 Hash: 365B3BEDA8A5459F8F660A38AEA37667 Accuracy: -m0
  Conclusion: CDDA 100%
  Signature: F4D83C93A94E74401D3A9DD111F41775F2271CE0
FILE: 04-Where She Told Me To Go.flac
  Size: 32655000 Hash: 5E48A7F72ABD9680A1D3CBCC02C9B84F Accuracy: -m0
  Conclusion: CDDA 100%
  Signature: A03DD911C8A1573D1B886B5B47669FB5CE8DF069
FILE: 03-Young And Wild.flac
  Size: 25219263 Hash: B6332267514757A33C6DC7AC07C64FF0 Accuracy: -m0
  Conclusion: CDDA 100%
  Signature: 199663083FD06C48DF34CDB0C767594D592B24BA
FILE: 02-Lotta Boot Left To Fill.flac
  Size: 26228070 Hash: 3D63EEF42F2F8A0093714D1ED0932A59 Accuracy: -m0
  Conclusion: CDDA 100%
  Signature: 442A6BDC3A31D882446FD666329DF8AA1FE04780
FILE: 01-Aint't Killed Me Yet.flac
  Size: 26473659 Hash: E7CEB367218A0CA40D15A19EDD336547 Accuracy: -m0
  Conclusion: CDDA 100%
  Signature: BBF8A4B153824C0F30C032017891DCF5070C0CC3
Продолжительность: 00:39:45
Издатель (лейбл): EMI Records Nashville
Номер по каталогу: 509990-94266-2-7
Релизер: gtrman09
Треклист:
01. Creepin' (3:53)
02. Drink In My Hand (3:11)
03. Keep On (2:39)
04. Like Jesus Does (3:19)
05. Hungover & Hard Up (2:53)
06. Homeboy (3:47)
07. Country Music Jesus (3:53)
08. Jack Daniels (5:04)
09. Springsteen (4:23)
10. I'm Gettin' Stoned (4:03)
11. Over When It's Over (2:40)

Код:

X Lossless Decoder version 20110703 (135.1)

XLD extraction logfile from 2011-07-26 16:41:18 -0700

Eric Church / Chief

Used drive : HL-DT-ST DVDRW  GS23N (revision SB00)

Ripper mode             : XLD Secure Ripper
Disable audio cache     : OK for the drive with a cache less than 1375KiB
Make use of C2 pointers : NO
Read offset correction  : 667
Max retry count         : 100
Gap status              : Analyzed, Appended

TOC of the extracted CD
     Track |   Start  |  Length  | Start sector | End sector
    ---------------------------------------------------------
        1  | 00:00:00 | 03:52:54 |         0    |    17453
        2  | 03:52:54 | 03:11:23 |     17454    |    31801
        3  | 07:04:02 | 02:38:57 |     31802    |    43708
        4  | 09:42:59 | 03:18:55 |     43709    |    58613
        5  | 13:01:39 | 02:53:15 |     58614    |    71603
        6  | 15:54:54 | 03:47:17 |     71604    |    88645
        7  | 19:41:71 | 03:52:66 |     88646    |   106111
        8  | 23:34:62 | 05:04:03 |    106112    |   128914
        9  | 28:38:65 | 04:23:29 |    128915    |   148668
       10  | 33:02:19 | 04:02:64 |    148669    |   166882
       11  | 37:05:08 | 02:39:54 |    166883    |   178861

AccurateRip Summary
    Disc not found in AccurateRip DB.

All Tracks
    Album gain             : -9.62 dB
    Peak                   : 0.999146
    Statistics
        Read error                           : 0
        Jitter error (maybe fixed)           : 0
        Retry sector count                   : 0
        Damaged sector count                 : 0

Track 01
    Filename : /Users/tylermarsh/Music/XLD/01 - Creepin'.flac
               /Users/tylermarsh/Music/XLD/01 - Creepin'.mp3
    Pre-gap length : 00:02:00

    Track gain             : -10.07 dB
    Peak                   : 0.999146
    CRC32 hash (test run)  : C74666A2
    CRC32 hash             : C74666A2
    CRC32 hash (skip zero) : 1AE7979D
    AccurateRip signature  : 642DCF42
        ->Track not present in AccurateRip database.
    Statistics
        Read error                           : 0
        Jitter error (maybe fixed)           : 0
        Retry sector count                   : 0
        Damaged sector count                 : 0

Track 02
    Filename : /Users/tylermarsh/Music/XLD/02 - Drink In My Hand.flac
               /Users/tylermarsh/Music/XLD/02 - Drink In My Hand.mp3
    Pre-gap length : 00:00:51

    Track gain             : -9.17 dB
    Peak                   : 0.999146
    CRC32 hash (test run)  : AF2F33FB
    CRC32 hash             : AF2F33FB
    CRC32 hash (skip zero) : 3739C898
    AccurateRip signature  : 19BF0C5A
        ->Track not present in AccurateRip database.
    Statistics
        Read error                           : 0
        Jitter error (maybe fixed)           : 0
        Retry sector count                   : 0
        Damaged sector count                 : 0

Track 03
    Filename : /Users/tylermarsh/Music/XLD/03 - Keep On.flac
               /Users/tylermarsh/Music/XLD/03 - Keep On.mp3
    Pre-gap length : 00:00:16

    Track gain             : -9.39 dB
    Peak                   : 0.999115
    CRC32 hash (test run)  : 778438F0
    CRC32 hash             : 778438F0
    CRC32 hash (skip zero) : 9EB57067
    AccurateRip signature  : 84929818
        ->Track not present in AccurateRip database.
    Statistics
        Read error                           : 0
        Jitter error (maybe fixed)           : 0
        Retry sector count                   : 0
        Damaged sector count                 : 0

Track 04
    Filename : /Users/tylermarsh/Music/XLD/04 - Like Jesus Does.flac
               /Users/tylermarsh/Music/XLD/04 - Like Jesus Does.mp3

    Track gain             : -7.53 dB
    Peak                   : 0.999146
    CRC32 hash (test run)  : DD153667
    CRC32 hash             : DD153667
    CRC32 hash (skip zero) : 740DD24C
    AccurateRip signature  : 402254C4
        ->Track not present in AccurateRip database.
    Statistics
        Read error                           : 0
        Jitter error (maybe fixed)           : 0
        Retry sector count                   : 0
        Damaged sector count                 : 0

Track 05
    Filename : /Users/tylermarsh/Music/XLD/05 - Hungover & Hard Up.flac
               /Users/tylermarsh/Music/XLD/05 - Hungover & Hard Up.mp3
    Pre-gap length : 00:01:35

    Track gain             : -8.60 dB
    Peak                   : 0.999115
    CRC32 hash (test run)  : 3F18BE7E
    CRC32 hash             : 3F18BE7E
    CRC32 hash (skip zero) : 47CF9081
    AccurateRip signature  : 6B66C05B
        ->Track not present in AccurateRip database.
    Statistics
        Read error                           : 0
        Jitter error (maybe fixed)           : 0
        Retry sector count                   : 0
        Damaged sector count                 : 0

Track 06
    Filename : /Users/tylermarsh/Music/XLD/06 - Homeboy.flac
               /Users/tylermarsh/Music/XLD/06 - Homeboy.mp3

    Track gain             : -10.06 dB
    Peak                   : 0.999115
    CRC32 hash (test run)  : 8A4B56E2
    CRC32 hash             : 8A4B56E2
    CRC32 hash (skip zero) : E498AC58
    AccurateRip signature  : 4C6E2D85
        ->Track not present in AccurateRip database.
    Statistics
        Read error                           : 0
        Jitter error (maybe fixed)           : 0
        Retry sector count                   : 0
        Damaged sector count                 : 0

Track 07
    Filename : /Users/tylermarsh/Music/XLD/07 - Country Music Jesus.flac
               /Users/tylermarsh/Music/XLD/07 - Country Music Jesus.mp3
    Pre-gap length : 00:00:27

    Track gain             : -9.87 dB
    Peak                   : 0.999146
    CRC32 hash (test run)  : 8D1577EB
    CRC32 hash             : 8D1577EB
    CRC32 hash (skip zero) : BA9EE38B
    AccurateRip signature  : 8CF571FC
        ->Track not present in AccurateRip database.
    Statistics
        Read error                           : 0
        Jitter error (maybe fixed)           : 0
        Retry sector count                   : 0
        Damaged sector count                 : 0

Track 08
    Filename : /Users/tylermarsh/Music/XLD/08 - Jack Daniels.flac
               /Users/tylermarsh/Music/XLD/08 - Jack Daniels.mp3
    Pre-gap length : 00:00:39

    Track gain             : -8.64 dB
    Peak                   : 0.999115
    CRC32 hash (test run)  : AA9AE8A4
    CRC32 hash             : AA9AE8A4
    CRC32 hash (skip zero) : BCD08613
    AccurateRip signature  : D69EB331
        ->Track not present in AccurateRip database.
    Statistics
        Read error                           : 0
        Jitter error (maybe fixed)           : 0
        Retry sector count                   : 0
        Damaged sector count                 : 0

Track 09
    Filename : /Users/tylermarsh/Music/XLD/09 - Springsteen.flac
               /Users/tylermarsh/Music/XLD/09 - Springsteen.mp3
    Pre-gap length : 00:01:07

    Track gain             : -9.32 dB
    Peak                   : 0.999115
    CRC32 hash (test run)  : 513C9B6C
    CRC32 hash             : 513C9B6C
    CRC32 hash (skip zero) : 11254227
    AccurateRip signature  : AB5DF5E3
        ->Track not present in AccurateRip database.
    Statistics
        Read error                           : 0
        Jitter error (maybe fixed)           : 0
        Retry sector count                   : 0
        Damaged sector count                 : 0

Track 10
    Filename : /Users/tylermarsh/Music/XLD/10 - I'm Gettin' Stoned.flac
               /Users/tylermarsh/Music/XLD/10 - I'm Gettin' Stoned.mp3
    Pre-gap length : 00:00:37

    Track gain             : -10.01 dB
    Peak                   : 0.999115
    CRC32 hash (test run)  : 4A18837C
    CRC32 hash             : 4A18837C
    CRC32 hash (skip zero) : E9936157
    AccurateRip signature  : 186ABE8E
        ->Track not present in AccurateRip database.
    Statistics
        Read error                           : 0
        Jitter error (maybe fixed)           : 0
        Retry sector count                   : 0
        Damaged sector count                 : 0

Track 11
    Filename : /Users/tylermarsh/Music/XLD/11 - Over When It's Over.flac
               /Users/tylermarsh/Music/XLD/11 - Over When It's Over.mp3
    Pre-gap length : 00:00:39

    Track gain             : -10.05 dB
    Peak                   : 0.999115
    CRC32 hash (test run)  : 79BC439B
    CRC32 hash             : 79BC439B
    CRC32 hash (skip zero) : DBBDFEF5
    AccurateRip signature  : BFF2FBA4
        ->Track not present in AccurateRip database.
    Statistics
        Read error                           : 0
        Jitter error (maybe fixed)           : 0
        Retry sector count                   : 0
        Damaged sector count                 : 0

No errors occurred

End of status report

Код:

TITLE "Chief"
PERFORMER "Eric Church"
CATALOG 5099909426627
REM GENRE "Country"
REM DATE "2011"
REM DISCID 9409500B
REM REPLAYGAIN_ALBUM_GAIN -9.62 dB
REM REPLAYGAIN_ALBUM_PEAK 0.999146
FILE "01 - Creepin'.flac" WAVE
  TRACK 01 AUDIO
    TITLE "Creepin'"
    ISRC USCN11100110
    REM REPLAYGAIN_TRACK_GAIN -10.07 dB
    REM REPLAYGAIN_TRACK_PEAK 0.999146
    INDEX 01 00:00:00
  TRACK 02 AUDIO
    TITLE "Drink In My Hand"
    ISRC USCN11100111
    REM REPLAYGAIN_TRACK_GAIN -9.17 dB
    REM REPLAYGAIN_TRACK_PEAK 0.999146
    INDEX 00 03:52:03
FILE "02 - Drink In My Hand.flac" WAVE
    INDEX 01 00:00:00
  TRACK 03 AUDIO
    TITLE "Keep On"
    ISRC USCN11100112
    REM REPLAYGAIN_TRACK_GAIN -9.39 dB
    REM REPLAYGAIN_TRACK_PEAK 0.999115
    INDEX 00 03:11:07
FILE "03 - Keep On.flac" WAVE
    INDEX 01 00:00:00
FILE "04 - Like Jesus Does.flac" WAVE
  TRACK 04 AUDIO
    TITLE "Like Jesus Does"
    ISRC USCN11100113
    REM REPLAYGAIN_TRACK_GAIN -7.53 dB
    REM REPLAYGAIN_TRACK_PEAK 0.999146
    INDEX 01 00:00:00
  TRACK 05 AUDIO
    TITLE "Hungover & Hard Up"
    ISRC USCN11100114
    REM REPLAYGAIN_TRACK_GAIN -8.60 dB
    REM REPLAYGAIN_TRACK_PEAK 0.999115
    INDEX 00 03:17:20
FILE "05 - Hungover & Hard Up.flac" WAVE
    INDEX 01 00:00:00
FILE "06 - Homeboy.flac" WAVE
  TRACK 06 AUDIO
    TITLE "Homeboy"
    ISRC USCN11100004
    REM REPLAYGAIN_TRACK_GAIN -10.06 dB
    REM REPLAYGAIN_TRACK_PEAK 0.999115
    INDEX 01 00:00:00
  TRACK 07 AUDIO
    TITLE "Country Music Jesus"
    ISRC USCN11100115
    REM REPLAYGAIN_TRACK_GAIN -9.87 dB
    REM REPLAYGAIN_TRACK_PEAK 0.999146
    INDEX 00 03:46:65
FILE "07 - Country Music Jesus.flac" WAVE
    INDEX 01 00:00:00
  TRACK 08 AUDIO
    TITLE "Jack Daniels"
    ISRC USCN11100104
    REM REPLAYGAIN_TRACK_GAIN -8.64 dB
    REM REPLAYGAIN_TRACK_PEAK 0.999115
    INDEX 00 03:52:27
FILE "08 - Jack Daniels.flac" WAVE
    INDEX 01 00:00:00
  TRACK 09 AUDIO
    TITLE "Springsteen"
    ISRC USCN11100116
    REM REPLAYGAIN_TRACK_GAIN -9.32 dB
    REM REPLAYGAIN_TRACK_PEAK 0.999115
    INDEX 00 05:02:71
FILE "09 - Springsteen.flac" WAVE
    INDEX 01 00:00:00
  TRACK 10 AUDIO
    TITLE "I'm Gettin' Stoned"
    ISRC USCN11100117
    REM REPLAYGAIN_TRACK_GAIN -10.01 dB
    REM REPLAYGAIN_TRACK_PEAK 0.999115
    INDEX 00 04:22:67
FILE "10 - I'm Gettin' Stoned.flac" WAVE
    INDEX 01 00:00:00
  TRACK 11 AUDIO
    TITLE "Over When It's Over"
    ISRC USCN11100118
    REM REPLAYGAIN_TRACK_GAIN -10.05 dB
    REM REPLAYGAIN_TRACK_PEAK 0.999115
    INDEX 00 04:02:25
FILE "11 - Over When It's Over.flac" WAVE
    INDEX 01 00:00:00

Код:

-----------------------

DON'T MODIFY THIS FILE

-----------------------

PERFORMER: auCDtect Task Manager, ver. 1.6.0 RC1 build 1.6.0.1
Copyright (c) 2008-2010 y-soft. All rights reserved
http://y-soft.org

ANALYZER: auCDtect: CD records authenticity detector, version 0.8.2
Copyright (c) 2004 Oleg Berngardt. All rights reserved.
Copyright (c) 2004 Alexander Djourik. All rights reserved.

FILE: 11 - Over When It's Over.flac
  Size: 18182031 Hash: 488ECA56D481C9B99FA70FBBEE7F1249 Accuracy: -m0
  Conclusion: CDDA 100%
  Signature: FEBD4B8525CCC0744BF94BC95AB84F6F8469BC18
FILE: 10 - I'm Gettin' Stoned.flac
  Size: 30989392 Hash: 74D9D8002B2D09F8FDA5849A6C8EDB0D Accuracy: -m0
  Conclusion: CDDA 100%
  Signature: 782647023ED51BA02BB60F11E04B10388EE763CF
FILE: 09 - Springsteen.flac
  Size: 29584601 Hash: F089C4B4224E3CBFD47400594DFDBF90 Accuracy: -m0
  Conclusion: CDDA 100%
  Signature: 96F09459E8C87EED281AC0E394EAD12F6160282E
FILE: 08 - Jack Daniels.flac
  Size: 32643306 Hash: EAD13C127E53FDBFDFBF063D480A7DA0 Accuracy: -m0
  Conclusion: CDDA 100%
  Signature: 970D767E205747FB6098F5C855FBC6827B42D46B
FILE: 07 - Country Music Jesus.flac
  Size: 25544423 Hash: CEF64F1988DDFE53C6A6ABB6B9C72698 Accuracy: -m0
  Conclusion: CDDA 100%
  Signature: 1E3F726504E0289280BFB658F5403C2DD661CCEF
FILE: 06 - Homeboy.flac
  Size: 26497070 Hash: D226B55F0C11528F1BC35BEE289B27E6 Accuracy: -m0
  Conclusion: CDDA 100%
  Signature: F0F8959D6D4341E1A1DC7CBC6D1B2969E02B9718
FILE: 05 - Hungover & Hard Up.flac
  Size: 19533123 Hash: 5CA61C5EE2FBF10CB627C6E9D64F92E8 Accuracy: -m0
  Conclusion: CDDA 100%
  Signature: D37260A680691169BC1EB1191623977EF8CA48B9
FILE: 04 - Like Jesus Does.flac
  Size: 19009078 Hash: 27436FED1764D7CC8105829A50DAD84E Accuracy: -m0
  Conclusion: CDDA 99%
  Signature: EB385A3D138868A2FF6042BE9200F4497B37AD2A
FILE: 03 - Keep On.flac
  Size: 19544473 Hash: A90E2718B8A566D83D4FB0E177DA86D5 Accuracy: -m0
  Conclusion: CDDA 100%
  Signature: 6F16E49759E4D9EF918CBE8E6671A4CCB5A3847D
FILE: 02 - Drink In My Hand.flac
  Size: 24068773 Hash: D025FE759D2B6EB99D670812C4759DF3 Accuracy: -m0
  Conclusion: CDDA 100%
  Signature: D0AF209663B98476E49BBD4D89946EEEA447513D
FILE: 01 - Creepin'.flac
  Size: 26043059 Hash: 24E3EC9659FDEFBE08B938C8085C1387 Accuracy: -m0
  Conclusion: CDDA 100%
  Signature: 792B0CECED73D87F40A8F79E57B2935390510295
Продолжительность: 00:50:48
Издатель (лейбл): EMI Nashville
Релизер: TheEighthCircle
Треклист:
01. The Outsiders (4:13)
02. A Man Who Was Gonna Die Young (3:14)
03. Cold One (3:25)
04. Roller Coaster Ride (4:36)
05. Talladega (4:22)
06. Broke Record (3:30)
07. Like A Wrecking Ball (3:19)
08. That's Damn Rock & Roll (4:26)
09. Dark Side (3:38)
10. Devil, Devil (Prelude: Prince Of Darkness) (8:03)
11. Give Me Back My Hometown (4:12)
12. The Joint (3:49)

Код:

Exact Audio Copy V1.0 beta 3 from 29. August 2011

EAC extraction logfile from 11. February 2014, 16:30

Eric Church / The Outsiders

Used drive  : TSSTcorpCDDVDW TS-L633C   Adapter: 0  ID: 1

Read mode               : Secure
Utilize accurate stream : Yes
Defeat audio cache      : Yes
Make use of C2 pointers : No

Read offset correction                      : 6
Overread into Lead-In and Lead-Out          : No
Fill up missing offset samples with silence : Yes
Delete leading and trailing silent blocks   : No
Null samples used in CRC calculations       : Yes
Used interface                              : Native Win32 interface for Win NT & 2000
Gap handling                                : Appended to previous track

Used output format              : User Defined Encoder
Selected bitrate                : 1024 kBit/s
Quality                         : High
Add ID3 tag                     : No
Command line compressor         : C:\Program Files (x86)\Exact Audio Copy\Flac\flac.exe
Additional command line options : -8 -V -T "ARTIST=%artist%" -T "TITLE=%title%" -T "ALBUM=%albumtitle%" -T "DATE=%year%" -T "TRACKNUMBER=%tracknr%" -T "GENRE=%genre%" -T "PERFORMER=%albuminterpret%" -T "COMPOSER=%composer%" %haslyrics%--tag-from-file=LYRICS="%lyricsfile%"%haslyrics% -T "ALBUMARTIST=%albumartist%" -T "DISCNUMBER=%cdnumber%" -T "TOTALDISCS=%totalcds%" -T "TOTALTRACKS=%numtracks%" -T "COMMENT=%comment%" %source% -o %dest%

TOC of the extracted CD

     Track |   Start  |  Length  | Start sector | End sector
    ---------------------------------------------------------
        1  |  0:00.00 |  4:12.67 |         0    |    18966
        2  |  4:12.67 |  3:13.59 |     18967    |    33500
        3  |  7:26.51 |  3:25.17 |     33501    |    48892
        4  | 10:51.68 |  4:36.28 |     48893    |    69620
        5  | 15:28.21 |  4:22.21 |     69621    |    89291
        6  | 19:50.42 |  3:29.59 |     89292    |   105025
        7  | 23:20.26 |  3:18.68 |    105026    |   119943
        8  | 26:39.19 |  4:26.36 |    119944    |   139929
        9  | 31:05.55 |  3:38.11 |    139930    |   156290
       10  | 34:43.66 |  8:02.62 |    156291    |   192502
       11  | 42:46.53 |  4:12.37 |    192503    |   211439
       12  | 46:59.15 |  3:49.09 |    211440    |   228623

Track  1

     Filename D:\Convert\Exact Audio Copy\Eric Church - The Outsiders (2014) [FLAC]\01 - The Outsiders.wav

     Pre-gap length  0:00:02.00

     Peak level 99.9 %
     Extraction speed 2.9 X
     Track quality 100.0 %
     Test CRC 06231BBE
     Copy CRC 06231BBE
     Track not present in AccurateRip database
     Copy OK

Track  2

     Filename D:\Convert\Exact Audio Copy\Eric Church - The Outsiders (2014) [FLAC]\02 - A Man Who Was Gonna Die Young.wav

     Peak level 94.2 %
     Extraction speed 3.1 X
     Track quality 100.0 %
     Test CRC 4419C614
     Copy CRC 4419C614
     Track not present in AccurateRip database
     Copy OK

Track  3

     Filename D:\Convert\Exact Audio Copy\Eric Church - The Outsiders (2014) [FLAC]\03 - Cold One.wav

     Peak level 98.8 %
     Extraction speed 3.3 X
     Track quality 100.0 %
     Test CRC 46BC236C
     Copy CRC 46BC236C
     Track not present in AccurateRip database
     Copy OK

Track  4

     Filename D:\Convert\Exact Audio Copy\Eric Church - The Outsiders (2014) [FLAC]\04 - Roller Coaster Ride.wav

     Peak level 98.8 %
     Extraction speed 3.7 X
     Track quality 100.0 %
     Test CRC 349FE7A8
     Copy CRC 349FE7A8
     Track not present in AccurateRip database
     Copy OK

Track  5

     Filename D:\Convert\Exact Audio Copy\Eric Church - The Outsiders (2014) [FLAC]\05 - Talladega.wav

     Peak level 98.8 %
     Extraction speed 3.1 X
     Track quality 99.9 %
     Test CRC 3BC1C987
     Copy CRC 3BC1C987
     Track not present in AccurateRip database
     Copy OK

Track  6

     Filename D:\Convert\Exact Audio Copy\Eric Church - The Outsiders (2014) [FLAC]\06 - Broke Record.wav

     Peak level 98.8 %
     Extraction speed 3.1 X
     Track quality 99.9 %
     Test CRC 433F01ED
     Copy CRC 433F01ED
     Track not present in AccurateRip database
     Copy OK

Track  7

     Filename D:\Convert\Exact Audio Copy\Eric Church - The Outsiders (2014) [FLAC]\07 - Like A Wrecking Ball.wav

     Peak level 99.9 %
     Extraction speed 3.9 X
     Track quality 100.0 %
     Test CRC 4D6F2396
     Copy CRC 4D6F2396
     Track not present in AccurateRip database
     Copy OK

Track  8

     Filename D:\Convert\Exact Audio Copy\Eric Church - The Outsiders (2014) [FLAC]\08 - That's Damn Rock & Roll.wav

     Peak level 99.9 %
     Extraction speed 4.3 X
     Track quality 100.0 %
     Test CRC 1F2EE5E9
     Copy CRC 1F2EE5E9
     Track not present in AccurateRip database
     Copy OK

Track  9

     Filename D:\Convert\Exact Audio Copy\Eric Church - The Outsiders (2014) [FLAC]\09 - Dark Side.wav

     Peak level 99.0 %
     Extraction speed 3.5 X
     Track quality 99.9 %
     Test CRC DB259186
     Copy CRC DB259186
     Track not present in AccurateRip database
     Copy OK

Track 10

     Filename D:\Convert\Exact Audio Copy\Eric Church - The Outsiders (2014) [FLAC]\10 - Devil, Devil (Prelude- Prince Of Darkness).wav

     Peak level 96.5 %
     Extraction speed 5.0 X
     Track quality 100.0 %
     Test CRC 1DC4C370
     Copy CRC 1DC4C370
     Track not present in AccurateRip database
     Copy OK

Track 11

     Filename D:\Convert\Exact Audio Copy\Eric Church - The Outsiders (2014) [FLAC]\11 - Give Me Back My Hometown.wav

     Peak level 99.9 %
     Extraction speed 4.9 X
     Track quality 100.0 %
     Test CRC F8376086
     Copy CRC F8376086
     Track not present in AccurateRip database
     Copy OK

Track 12

     Filename D:\Convert\Exact Audio Copy\Eric Church - The Outsiders (2014) [FLAC]\12 - The Joint.wav

     Peak level 91.1 %
     Extraction speed 4.9 X
     Track quality 100.0 %
     Test CRC F1735F5B
     Copy CRC F1735F5B
     Track not present in AccurateRip database
     Copy OK

None of the tracks are present in the AccurateRip database

No errors occurred

End of status report

==== Log checksum 154D6120909AD37BA4946E355F8C8368F9F963DA5623E5712190B114F5C853E2 ====
Код:

REM DATE 2014
REM DISCID 9A0BE80C
REM COMMENT "ExactAudioCopy v1.0b3"
PERFORMER "Eric Church"
TITLE "The Outsiders"
FILE "01 - The Outsiders.wav" WAVE
  TRACK 01 AUDIO
    TITLE "The Outsiders"
    PERFORMER "Eric Church"
    INDEX 01 00:00:00
FILE "02 - A Man Who Was Gonna Die Young.wav" WAVE
  TRACK 02 AUDIO
    TITLE "A Man Who Was Gonna Die Young"
    PERFORMER "Eric Church"
    INDEX 01 00:00:00
FILE "03 - Cold One.wav" WAVE
  TRACK 03 AUDIO
    TITLE "Cold One"
    PERFORMER "Eric Church"
    INDEX 01 00:00:00
FILE "04 - Roller Coaster Ride.wav" WAVE
  TRACK 04 AUDIO
    TITLE "Roller Coaster Ride"
    PERFORMER "Eric Church"
    INDEX 01 00:00:00
FILE "05 - Talladega.wav" WAVE
  TRACK 05 AUDIO
    TITLE "Talladega"
    PERFORMER "Eric Church"
    INDEX 01 00:00:00
FILE "06 - Broke Record.wav" WAVE
  TRACK 06 AUDIO
    TITLE "Broke Record"
    PERFORMER "Eric Church"
    INDEX 01 00:00:00
FILE "07 - Like A Wrecking Ball.wav" WAVE
  TRACK 07 AUDIO
    TITLE "Like A Wrecking Ball"
    PERFORMER "Eric Church"
    INDEX 01 00:00:00
FILE "08 - That's Damn Rock & Roll.wav" WAVE
  TRACK 08 AUDIO
    TITLE "That's Damn Rock & Roll "
    PERFORMER "Eric Church"
    INDEX 01 00:00:00
FILE "09 - Dark Side.wav" WAVE
  TRACK 09 AUDIO
    TITLE "Dark Side"
    PERFORMER "Eric Church"
    INDEX 01 00:00:00
FILE "10 - Devil, Devil (Prelude- Prince Of Darkness).wav" WAVE
  TRACK 10 AUDIO
    TITLE "Devil, Devil (Prelude: Prince Of Darkness)"
    PERFORMER "Eric Church"
    INDEX 01 00:00:00
FILE "11 - Give Me Back My Hometown.wav" WAVE
  TRACK 11 AUDIO
    TITLE "Give Me Back My Hometown"
    PERFORMER "Eric Church"
    INDEX 01 00:00:00
FILE "12 - The Joint.wav" WAVE
  TRACK 12 AUDIO
    TITLE "The Joint"
    PERFORMER "Eric Church"
    INDEX 01 00:00:00
Код:

-----------------------

DON'T MODIFY THIS FILE

-----------------------

PERFORMER: auCDtect Task Manager, ver. 1.6.0 RC1 build 1.6.0.1
Copyright (c) 2008-2010 y-soft. All rights reserved
http://y-soft.org

ANALYZER: auCDtect: CD records authenticity detector, version 0.8.2
Copyright (c) 2004 Oleg Berngardt. All rights reserved.
Copyright (c) 2004 Alexander Djourik. All rights reserved.

FILE: 12 - The Joint.flac
  Size: 18622337 Hash: ECC66F00F8D9485C7C8850746EB2F64E Accuracy: -m0
  Conclusion: CDDA 100%
  Signature: C4B82482EF4ADCC88D03D8B620728178BA3877C0
FILE: 11 - Give Me Back My Hometown.flac
  Size: 26253707 Hash: 066A1526E68F996481898641294BB8DD Accuracy: -m0
  Conclusion: CDDA 99%
  Signature: 562AF38365283E2130CF31F989EC7BE2296614BD
FILE: 10 - Devil, Devil (Prelude- Prince Of Darkness).flac
  Size: 53465838 Hash: 875C441FFD089A25F198F01A5AB91681 Accuracy: -m0
  Conclusion: CDDA 100%
  Signature: 93AA943B2DB2C1EE3A22D7D5660CF792F35BF7EC
FILE: 09 - Dark Side.flac
  Size: 20543705 Hash: 4A4F8D041CA7E60BCAB2BAD1F58FBFAE Accuracy: -m0
  Conclusion: CDDA 100%
  Signature: 34B90A68B0C09B3D483126B949D484D25857C955
FILE: 08 - That's Damn Rock & Roll.flac
  Size: 28263011 Hash: 81D552088D1D882949510B02AADF41BB Accuracy: -m0
  Conclusion: CDDA 100%
  Signature: 8BC1915EEAA45F387EB4E0D6F9B669AF5E3E0FFA
FILE: 07 - Like A Wrecking Ball.flac
  Size: 19139168 Hash: FAEFA5C0DF3D8D49C5F305C17EF61761 Accuracy: -m0
  Conclusion: CDDA 100%
  Signature: 4992E46F3FAF671348F17CD9BE5FCFFBCEB07D59
FILE: 06 - Broke Record.flac
  Size: 23038631 Hash: C37E26D7F72BDB2E72AFEC7C4AD4ABDC Accuracy: -m0
  Conclusion: CDDA 100%
  Signature: A0E9B3BFA265DA448B5E1E4661F21E057F442B2D
FILE: 05 - Talladega.flac
  Size: 28345644 Hash: CEC2B9593207BC4D801DE3428598C3F2 Accuracy: -m0
  Conclusion: CDDA 100%
  Signature: 37A5FBFCA7DE5340ACAEEADD961CD446C7052A97
FILE: 04 - Roller Coaster Ride.flac
  Size: 30306745 Hash: 9EFBC6C6E2D48DC051EEE4E74AB51F60 Accuracy: -m0
  Conclusion: CDDA 99%
  Signature: 5E907EA737C9A8D162F684BA42387FFD91F9D960
FILE: 03 - Cold One.flac
  Size: 23203538 Hash: 6F2B89F0C65FBF403BC4F5744CB2D8A6 Accuracy: -m0
  Conclusion: CDDA 99%
  Signature: 9854E44DC42E2391B889E0D66246680CD5D9BB43
FILE: 02 - A Man Who Was Gonna Die Young.flac
  Size: 14183077 Hash: B61E8B3E82DD056E62ED5E3F1D1165CC Accuracy: -m0
  Conclusion: CDDA 100%
  Signature: 886BEFB2B36D71A362F9940F92863769F479E90A
FILE: 01 - The Outsiders.flac
  Size: 28938815 Hash: 16E5AFB53DE9A0A5912FCAF56E192CED Accuracy: -m0
  Conclusion: CDDA 100%
  Signature: 2BB2ADF5770F26EA68C5F8732C63CCC8D9BC27EB



Время раздачи: 24/7


Поглощение/вытеснение
Только с согласия релизера

DesideriuM
[NNM-Club.me]_Eric Church.torrent
 Торрент: Платиновая раздача  Зарегистрирован
 
Скачать


Примагнититься
 Зарегистрирован:   03 Мар 2014 14:58:16
 Размер:   1,29 GB  (
 Рейтинг:    (Голосов: 8)
 Поблагодарили:   37
 Проверка:   Оформление проверено модератором 04 Мар 2014 10:19:38
Как cкачать  ·  Как раздать  ·  Правильно оформить  ·  Поднять ратио!  
Показать сообщения:   
Начать новую тему   Ответить на тему    Торрент-трекер NNM-Club -> Other Styles -> Folk (Lossless) Часовой пояс: GMT + 3
Страница 1 из 1