Классический форум-трекер
canvas not supported
Нас вместе: 4 077 858

Трон в крови (Макбет Куросавы) / Kumonosu-jo (1957) DVD9


 
 
RSS
Начать новую тему   Ответить на тему    Торрент-трекер NNM-Club -> Зарубежное кино -> Азиатское кино (DVD)
Автор Сообщение
DrUjestest ®
Стаж: 5 лет 7 мес.
Сообщений: 247
Ratio: 852,569
Раздал: 5,36 TB
Поблагодарили: 10631
100%
ukraine.gif
Трон в крови (Макбет Куросавы) / Kumonosu-jo (1957) DVD9
Год выпуска: 1957
Жанр: драма

Описание фильма:
Перемещение шекспировского Макбета в средневековую Японию. После грандиозной победы на поле брани, заблудившись в дремучем лесу, лорды Васидзу и Мики наталкиваются на загадочную вещую старуху, которая предсказывает великое будущее Васидзу, и еще более великое — потомкам Мики. Выбравшись из леса, они действительно получают вызов и почетные назначения от императора. Васидзу, подстрекаемый амбициозной женой, и задумывает пойти дальше предсказаний старой колдуньи, но судьба есть судьба…

Режиссер: Акира Куросава
Актеры: Тосиро Мифунэ, Исудзу Ямада, Такаси Симура, Акира Кубо, Хироши Татикава, Минору Чиаки, Такамару Сасаки, Ген Симидзу, Кокутэн Кодо, Китидзиро Уэда

Продолжительность: 01:49:38
Качество видео: DVD9
Перевод: многоголосый закадровый, одноголосый закадровый
Вид субтитров: вшитые (английские, русские)



Дата мировой премьеры: 19 января 1957
Дата выхода DVD релиза: 8 сентября 2011
Битрейт видео: ~8250 Kb/s
Размер кадра: NTSC 4:3 (720x480)

Аудио #1: русский (профессиональный многолосый) AC3 2.0, 192 Kb/s
Аудио #2: русский (любительский одноголосый) AC3 1.0, 96 Kb/s
Аудио #3: японский (оригинальная дорожка) AC3 1.0, 192 Kb/s
Title: Throne of Blood DVD-9
Size: 7.16 Gb ( 7 506 664,00 KBytes ) - DVD-9
Enabled regions: 1, 2, 3, 4, 5, 6, 7, 8

VTS_01 :
Play Length: 00:00:00
Video: NTSC 4:3 (720x480) VBR
Audio:
Japanese (Dolby AC3, 1 ch)
English (Dolby AC3, 1 ch)
Subtitles:
English
English

VTS_02 :
Play Length: 00:00:20
Video: NTSC 4:3 (720x480) VBR
Audio:
English (Dolby AC3, 1 ch)
English (Dolby AC3, 1 ch)
Subtitles:
English
English

VTS_03 :
Play Length: 00:03:43
Video: NTSC 4:3 (720x480) VBR
Audio:
Japanese (Dolby AC3, 1 ch)
Subtitles:
English

VTS_04 :
Play Length: 01:49:38
Video: NTSC 4:3 (720x480) VBR
Audio:
Russian (Dolby AC3, 2 ch)
Russian (Dolby AC3, 1 ch)
Japanese (Dolby AC3, 1 ch)
Subtitles:
English
English
Russian

VTS_05 :
Play Length: 00:00:00
Video: NTSC 4:3 (720x480) VBR
Audio:
Japanese (Dolby AC3, 1 ch)
English (Dolby AC3, 1 ch)
Subtitles:
English
English

* Menus Information *

VIDEO_TS Menu
Video:
NTSC 4:3 (720x480) VBR
Auto Pan&Scan, Auto Letterboxed
English Language Unit :
Title Menu

VTS_01 Menu
Video:
NTSC 4:3 (720x480) VBR
Audio:
Not specified (Dolby AC3, 1 ch)
English Language Unit :
Root Menu

VTS_02 Menu
Video:
NTSC 4:3 (720x480) VBR
English Language Unit :
Root Menu

VTS_03 Menu
Video:
NTSC 4:3 (720x480) VBR
English Language Unit :
Root Menu

VTS_04 Menu
Video:
NTSC 4:3 (720x480) VBR
English Language Unit :
Root Menu

VTS_05 Menu
Video:
NTSC 4:3 (720x480) VBR
English Language Unit :
Root Menu
General
Complete name : F:\Multimedia\Video\Throne of Blood DVD-9\VIDEO_TS\VTS_04_1.VOB
Format : MPEG-PS
File size : 1 024 MiB
Duration : 16mn 4s
Overall bit rate mode : Variable
Overall bit rate : 8 907 Kbps

Video
ID : 224 (0xE0)
Format : MPEG Video
Format version : Version 2
Format profile : Main@Main
Format settings, BVOP : Yes
Format settings, Matrix : Custom
Format settings, GOP : M=3, N=15
Duration : 16mn 4s
Bit rate mode : Variable
Bit rate : 8 250 Kbps
Maximum bit rate : 9 800 Kbps
Width : 720 pixels
Height : 480 pixels
Display aspect ratio : 4:3
Frame rate : 29.970 fps
Standard : Component
Color space : YUV
Chroma subsampling : 4:2:0
Bit depth : 8 bits
Scan type : Interlaced
Scan order : Top Field First
Compression mode : Lossy
Bits/(Pixel*Frame) : 0.797
Stream size : 948 MiB (93%)

Audio #1
ID : 189 (0xBD)-128 (0x80)
Format : AC-3
Format/Info : Audio Coding 3
Mode extension : CM (complete main)
Muxing mode : DVD-Video
Duration : 16mn 4s
Bit rate mode : Constant
Bit rate : 192 Kbps
Channel(s) : 2 channels
Channel positions : Front: L R
Sampling rate : 48.0 KHz
Bit depth : 16 bits
Compression mode : Lossy
Stream size : 22.1 MiB (2%)

Audio #2
ID : 189 (0xBD)-129 (0x81)
Format : AC-3
Format/Info : Audio Coding 3
Mode extension : CM (complete main)
Muxing mode : DVD-Video
Duration : 16mn 4s
Bit rate mode : Constant
Bit rate : 96.0 Kbps
Channel(s) : 1 channel
Channel positions : Front: C
Sampling rate : 48.0 KHz
Bit depth : 16 bits
Compression mode : Lossy
Stream size : 11.0 MiB (1%)

Audio #3
ID : 189 (0xBD)-130 (0x82)
Format : AC-3
Format/Info : Audio Coding 3
Mode extension : CM (complete main)
Muxing mode : DVD-Video
Duration : 16mn 4s
Bit rate mode : Constant
Bit rate : 192 Kbps
Channel(s) : 1 channel
Channel positions : Front: C
Sampling rate : 48.0 KHz
Bit depth : 16 bits
Compression mode : Lossy
Stream size : 22.1 MiB (2%)

Text #1
ID : 189 (0xBD)-32 (0x20)
Format : RLE
Format/Info : Run-length encoding
Muxing mode : DVD-Video

Text #2
ID : 189 (0xBD)-33 (0x21)
Format : RLE
Format/Info : Run-length encoding
Muxing mode : DVD-Video

Text #3
ID : 189 (0xBD)-34 (0x22)
Format : RLE
Format/Info : Run-length encoding
Muxing mode : DVD-Video

Menu
Скриншоты




"Трон в крови" Акиры Куросавы на NoNaMe Club

Время раздачи: 24/7
[NNM-Club.me]_Throne of Blood DVD-9.torrent
 Торрент: Платиновая раздача  Зарегистрирован
 
Скачать


Примагнититься
 Зарегистрирован:   13 Мар 2014 01:48:29
 Размер:   7,16 GB  (
 Рейтинг:   4,8 (Голосов: 24)
 Поблагодарили:   70
 Проверка:   Оформление проверено модератором 13 Мар 2014 16:39:52
Как cкачать  ·  Как раздать  ·  Правильно оформить  ·  Поднять ратио!  
sardigital
Uploaders 100+
Стаж: 11 лет 9 мес.
Сообщений: 39
Ratio: 49,923
14.9%
russia.gif
хочу это в DVDRip :)
DrUjestest ®
Стаж: 5 лет 7 мес.
Сообщений: 247
Ratio: 852,569
Раздал: 5,36 TB
Поблагодарили: 10631
100%
ukraine.gif
sardigital писал(а): Перейти к сообщению
хочу это в DVDRip :)


:нет: , картинка совсем плохая будет.
Показать сообщения:   
Начать новую тему   Ответить на тему    Торрент-трекер NNM-Club -> Зарубежное кино -> Азиатское кино (DVD) Часовой пояс: GMT + 3
Страница 1 из 1