Классический форум-трекер
canvas not supported
Нас вместе: 4 077 864

Студия "HOUSE" - 50 взрывных мелодий на звонок (2014) [MP3|128-320 кб/с]<trance, house, pop, epic>


 
 
RSS
Начать новую тему   Ответить на тему    Торрент-трекер NNM-Club -> Мультимедиа и прочее -> Мобильное Аудио
Автор Сообщение
mimiko 18 ®
Стаж: 8 лет 3 мес.
Сообщений: 288
Ratio: 62,749
Поблагодарили: 44703
100%
russia.gif
Студия "HOUSE" - 50 взрывных мелодий на звонок (2014)
Год: 2014
Жанр: trance, house, pop, epic
Продолжительность: 01:06:07

Кодек: MP3
Битрейт: 128-320 кб/с
Тип битрейта: CBR

Треклист:
01. Intense (02:03)
02. JOOP (01:21)
03. Eiforya (01:52)
04. The Fusion (02:02)
05. Save My Night (01:57)
06. Run boy run away (01:03)
07. One Republik (02:30)
08. Lifter (01:15)
09. The Code (00:29)
10. Thunder (01:12)
11. Grenade (00:47)
12. Big bang (00:43)
13. Cornea Spell (01:13)
14. Enjoy The Silence (01:00)
15. Fade to black (00:34)
16. Coming Home (01:53)
17. Back To Earth (01:16)
18. Vremya i Steklo (00:30)
19. Lightning (00:42)
20. ID 309 (01:37)
21. Invasion (01:03)
22. Rotunda (01:10)
23. Alesso (01:05)
24. Exploration of Space (00:47) 192 кб/с
25. D#Fat (00:29)
26. Character (00:52)
27. Cama (00:49)
28. Payback (01:49)
29. Troll 1 (01:16)
30. Violetta (01:27)
31. Interstate (01:09)
32. Ready to fall (00:44) 256 кб/с
33. City Lights (01:52)
34. These Silent hearts (00:29)
35. Troll 2 (00:52)
36. Well Be Coming Back (01:05)
37. Broken tonigt (00:15)
38. Somebody that i used to know (01:37)
39. T 157 (05:12) 128 кб/с
40. Xiing (00:57)
41. Flight 101 (01:53)
42. Apprehension (03:07)
43. Musika (00:28)
44. Forever (01:55)
45. Alive (01:52)
46. Wake me up (00:47)
47. DRop (01:52)
48. Genesis (01:01)
49. J'ai Envie De Toi (00:14)
50. Until The End (01:39)
Общее
Полное имя : I:\Мелодии на звонок\01. Intense.mp3
Формат : MPEG Audio
Размер файла : 4,71 Мбайт
Продолжительность : 2 м. 3 с.
Режим общего битрейта : Постоянный
Общий поток : 320 Кбит/сек
Кодирование произвёл : LAME in FL Studio 9
Дата записи : 2014
Библиотека кодирования : LAME3.98.2
BPM : 140

Аудио
Формат : MPEG Audio
Версия формата : Version 1
Профиль формата : Layer 3
Режим : Joint stereo
Расширение режима : MS Stereo
Продолжительность : 2 м. 3 с.
Вид битрейта : Постоянный
Битрейт : 320 Кбит/сек
Каналы : 2 канала
Частота : 44,1 КГц
Метод сжатия : С потерями
Размер потока : 4,71 Мбайт (100%)
Библиотека кодирования : LAME3.98.2

Общее
Полное имя : I:\Мелодии на звонок\02. JOOP.MP3
Формат : MPEG Audio
Размер файла : 3,09 Мбайт
Продолжительность : 1 м. 21 с.
Режим общего битрейта : Постоянный
Общий поток : 320 Кбит/сек
Кодирование произвёл : LAME in FL Studio 10
Дата записи : 2012
Библиотека кодирования : LAME3.98.4
BPM : 130

Аудио
Формат : MPEG Audio
Версия формата : Version 1
Профиль формата : Layer 3
Режим : Joint stereo
Продолжительность : 1 м. 21 с.
Вид битрейта : Постоянный
Битрейт : 320 Кбит/сек
Каналы : 2 канала
Частота : 44,1 КГц
Метод сжатия : С потерями
Размер потока : 3,09 Мбайт (100%)
Библиотека кодирования : LAME3.98.4

Общее
Полное имя : I:\Мелодии на звонок\03. Eiforya.mp3
Формат : MPEG Audio
Размер файла : 4,28 Мбайт
Продолжительность : 1 м. 52 с.
Режим общего битрейта : Постоянный
Общий поток : 320 Кбит/сек
Кодирование произвёл : LAME in FL Studio 9
Дата записи : 2014
Библиотека кодирования : LAME3.98.2ЄЄЄЄЄЄЄЄЄЄ
BPM : 140

Аудио
Формат : MPEG Audio
Версия формата : Version 1
Профиль формата : Layer 3
Режим : Joint stereo
Продолжительность : 1 м. 52 с.
Вид битрейта : Постоянный
Битрейт : 320 Кбит/сек
Каналы : 2 канала
Частота : 44,1 КГц
Метод сжатия : С потерями
Размер потока : 4,28 Мбайт (100%)
Библиотека кодирования : LAME3.98.2ЄЄЄЄЄЄЄЄЄЄ

Общее
Полное имя : I:\Мелодии на звонок\04. The Fusion.mp3
Формат : MPEG Audio
Размер файла : 4,68 Мбайт
Продолжительность : 2 м. 2 с.
Режим общего битрейта : Постоянный
Общий поток : 320 Кбит/сек
Кодирование произвёл : LAME in FL Studio 9
Дата записи : 2014
Библиотека кодирования : LAME3.98.2
BPM : 140

Аудио
Формат : MPEG Audio
Версия формата : Version 1
Профиль формата : Layer 3
Режим : Joint stereo
Продолжительность : 2 м. 2 с.
Вид битрейта : Постоянный
Битрейт : 320 Кбит/сек
Каналы : 2 канала
Частота : 44,1 КГц
Метод сжатия : С потерями
Размер потока : 4,68 Мбайт (100%)
Библиотека кодирования : LAME3.98.2

Общее
Полное имя : I:\Мелодии на звонок\05. Save My Night.mp3
Формат : MPEG Audio
Размер файла : 4,49 Мбайт
Продолжительность : 1 м. 57 с.
Режим общего битрейта : Постоянный
Общий поток : 320 Кбит/сек
Кодирование произвёл : LAME in FL Studio 9
Дата записи : 2014
Библиотека кодирования : LAME3.98.2
BPM : 140

Аудио
Формат : MPEG Audio
Версия формата : Version 1
Профиль формата : Layer 3
Режим : Joint stereo
Продолжительность : 1 м. 57 с.
Вид битрейта : Постоянный
Битрейт : 320 Кбит/сек
Каналы : 2 канала
Частота : 44,1 КГц
Метод сжатия : С потерями
Размер потока : 4,49 Мбайт (100%)
Библиотека кодирования : LAME3.98.2

Общее
Полное имя : I:\Мелодии на звонок\06. Run boy run away.mp3
Формат : MPEG Audio
Размер файла : 2,43 Мбайт
Продолжительность : 1 м. 3 с.
Режим общего битрейта : Постоянный
Общий поток : 320 Кбит/сек
Кодирование произвёл : LAME in FL Studio 9
Дата записи : 2014
Библиотека кодирования : LAME3.98.2ЄЄЄЄЄЄЄЄЄЄ
BPM : 140

Аудио
Формат : MPEG Audio
Версия формата : Version 1
Профиль формата : Layer 3
Режим : Joint stereo
Продолжительность : 1 м. 3 с.
Вид битрейта : Постоянный
Битрейт : 320 Кбит/сек
Каналы : 2 канала
Частота : 44,1 КГц
Метод сжатия : С потерями
Размер потока : 2,43 Мбайт (100%)
Библиотека кодирования : LAME3.98.2ЄЄЄЄЄЄЄЄЄЄ

Общее
Полное имя : I:\Мелодии на звонок\07. One Republik.mp3
Формат : MPEG Audio
Размер файла : 5,73 Мбайт
Продолжительность : 2 м. 30 с.
Режим общего битрейта : Постоянный
Общий поток : 320 Кбит/сек
Кодирование произвёл : LAME in FL Studio 9
Дата записи : 2013
Библиотека кодирования : LAME3.98.2ЄЄЄЄЄЄЄЄЄЄ
BPM : 140

Аудио
Формат : MPEG Audio
Версия формата : Version 1
Профиль формата : Layer 3
Режим : Joint stereo
Продолжительность : 2 м. 30 с.
Вид битрейта : Постоянный
Битрейт : 320 Кбит/сек
Каналы : 2 канала
Частота : 44,1 КГц
Метод сжатия : С потерями
Размер потока : 5,73 Мбайт (100%)
Библиотека кодирования : LAME3.98.2ЄЄЄЄЄЄЄЄЄЄ

Общее
Полное имя : I:\Мелодии на звонок\08. Lifter.mp3
Формат : MPEG Audio
Размер файла : 2,90 Мбайт
Продолжительность : 1 м. 15 с.
Режим общего битрейта : Постоянный
Общий поток : 320 Кбит/сек
Кодирование произвёл : LAME in FL Studio 9
Дата записи : 2014
Библиотека кодирования : LAME3.98.2ЄЄЄЄЄЄЄЄЄЄ
BPM : 140

Аудио
Формат : MPEG Audio
Версия формата : Version 1
Профиль формата : Layer 3
Режим : Joint stereo
Продолжительность : 1 м. 16 с.
Вид битрейта : Постоянный
Битрейт : 320 Кбит/сек
Каналы : 2 канала
Частота : 44,1 КГц
Метод сжатия : С потерями
Размер потока : 2,90 Мбайт (100%)
Библиотека кодирования : LAME3.98.2ЄЄЄЄЄЄЄЄЄЄ

Общее
Полное имя : I:\Мелодии на звонок\09. The Code.mp3
Формат : MPEG Audio
Размер файла : 1,11 Мбайт
Продолжительность : 29 с.
Режим общего битрейта : Постоянный
Общий поток : 320 Кбит/сек
Кодирование произвёл : LAME in FL Studio 9
Дата записи : 2014
Библиотека кодирования : LAME3.98.2
BPM : 140

Аудио
Формат : MPEG Audio
Версия формата : Version 1
Профиль формата : Layer 3
Режим : Joint stereo
Продолжительность : 29 с.
Вид битрейта : Постоянный
Битрейт : 320 Кбит/сек
Каналы : 2 канала
Частота : 44,1 КГц
Метод сжатия : С потерями
Размер потока : 1,11 Мбайт (100%)
Библиотека кодирования : LAME3.98.2

Общее
Полное имя : I:\Мелодии на звонок\10. Thunder.mp3
Формат : MPEG Audio
Размер файла : 2,77 Мбайт
Продолжительность : 1 м. 12 с.
Режим общего битрейта : Постоянный
Общий поток : 320 Кбит/сек
Кодирование произвёл : LAME in FL Studio 9
Дата записи : 2014
Библиотека кодирования : LAME3.98.2
BPM : 140

Аудио
Формат : MPEG Audio
Версия формата : Version 1
Профиль формата : Layer 3
Режим : Joint stereo
Расширение режима : MS Stereo
Продолжительность : 1 м. 12 с.
Вид битрейта : Постоянный
Битрейт : 320 Кбит/сек
Каналы : 2 канала
Частота : 44,1 КГц
Метод сжатия : С потерями
Размер потока : 2,77 Мбайт (100%)
Библиотека кодирования : LAME3.98.2

Общее
Полное имя : I:\Мелодии на звонок\11. Grenade.mp3
Формат : MPEG Audio
Размер файла : 1,83 Мбайт
Продолжительность : 47 с.
Режим общего битрейта : Постоянный
Общий поток : 320 Кбит/сек
Кодирование произвёл : LAME in FL Studio 9
Дата записи : 2014
Библиотека кодирования : LAME3.98.2
BPM : 140

Аудио
Формат : MPEG Audio
Версия формата : Version 1
Профиль формата : Layer 3
Режим : Joint stereo
Продолжительность : 47 с.
Вид битрейта : Постоянный
Битрейт : 320 Кбит/сек
Каналы : 2 канала
Частота : 44,1 КГц
Метод сжатия : С потерями
Размер потока : 1,83 Мбайт (100%)
Библиотека кодирования : LAME3.98.2

Общее
Полное имя : I:\Мелодии на звонок\12. Big bang.mp3
Формат : MPEG Audio
Размер файла : 1,66 Мбайт
Продолжительность : 43 с.
Режим общего битрейта : Постоянный
Общий поток : 320 Кбит/сек
Кодирование произвёл : LAME in FL Studio 9
Дата записи : 2014
Библиотека кодирования : LAME3.98.2ЄЄЄЄЄЄЄЄЄЄ
BPM : 140

Аудио
Формат : MPEG Audio
Версия формата : Version 1
Профиль формата : Layer 3
Режим : Joint stereo
Продолжительность : 43 с.
Вид битрейта : Постоянный
Битрейт : 320 Кбит/сек
Каналы : 2 канала
Частота : 44,1 КГц
Метод сжатия : С потерями
Размер потока : 1,66 Мбайт (100%)
Библиотека кодирования : LAME3.98.2ЄЄЄЄЄЄЄЄЄЄ

Общее
Полное имя : I:\Мелодии на звонок\13. Cornea Spell.mp3
Формат : MPEG Audio
Размер файла : 2,80 Мбайт
Продолжительность : 1 м. 13 с.
Режим общего битрейта : Постоянный
Общий поток : 320 Кбит/сек
Кодирование произвёл : LAME in FL Studio 9
Дата записи : 2013
Библиотека кодирования : LAME3.98.2
BPM : 140

Аудио
Формат : MPEG Audio
Версия формата : Version 1
Профиль формата : Layer 3
Режим : Joint stereo
Продолжительность : 1 м. 13 с.
Вид битрейта : Постоянный
Битрейт : 320 Кбит/сек
Каналы : 2 канала
Частота : 44,1 КГц
Метод сжатия : С потерями
Размер потока : 2,80 Мбайт (100%)
Библиотека кодирования : LAME3.98.2

Общее
Полное имя : I:\Мелодии на звонок\14. Enjoy The Silence.mp3
Формат : MPEG Audio
Размер файла : 2,30 Мбайт
Продолжительность : 1 м. 0 с.
Режим общего битрейта : Постоянный
Общий поток : 320 Кбит/сек
Кодирование произвёл : LAME in FL Studio 9
Дата записи : 2014
Библиотека кодирования : LAME3.98.2
BPM : 140

Аудио
Формат : MPEG Audio
Версия формата : Version 1
Профиль формата : Layer 3
Режим : Joint stereo
Расширение режима : MS Stereo
Продолжительность : 1 м. 0 с.
Вид битрейта : Постоянный
Битрейт : 320 Кбит/сек
Каналы : 2 канала
Частота : 44,1 КГц
Метод сжатия : С потерями
Размер потока : 2,30 Мбайт (100%)
Библиотека кодирования : LAME3.98.2

Общее
Полное имя : I:\Мелодии на звонок\15. Fade to black.mp3
Формат : MPEG Audio
Размер файла : 1,30 Мбайт
Продолжительность : 34 с.
Режим общего битрейта : Постоянный
Общий поток : 320 Кбит/сек
Кодирование произвёл : LAME in FL Studio 9
Дата записи : 2014
Библиотека кодирования : LAME3.98.2ЄЄЄЄЄЁ`™
BPM : 140

Аудио
Формат : MPEG Audio
Версия формата : Version 1
Профиль формата : Layer 3
Режим : Joint stereo
Продолжительность : 34 с.
Вид битрейта : Постоянный
Битрейт : 320 Кбит/сек
Каналы : 2 канала
Частота : 44,1 КГц
Метод сжатия : С потерями
Размер потока : 1,30 Мбайт (100%)
Библиотека кодирования : LAME3.98.2ЄЄЄЄЄЁ`™

Общее
Полное имя : I:\Мелодии на звонок\16. Coming Home.mp3
Формат : MPEG Audio
Размер файла : 4,33 Мбайт
Продолжительность : 1 м. 53 с.
Режим общего битрейта : Постоянный
Общий поток : 320 Кбит/сек
Кодирование произвёл : LAME in FL Studio 9
Дата записи : 2013
Библиотека кодирования : LAME3.98.2ЄЄЄЄЄЄЄЄЄЄ
BPM : 140

Аудио
Формат : MPEG Audio
Версия формата : Version 1
Профиль формата : Layer 3
Режим : Joint stereo
Продолжительность : 1 м. 53 с.
Вид битрейта : Постоянный
Битрейт : 320 Кбит/сек
Каналы : 2 канала
Частота : 44,1 КГц
Метод сжатия : С потерями
Размер потока : 4,33 Мбайт (100%)
Библиотека кодирования : LAME3.98.2ЄЄЄЄЄЄЄЄЄЄ

Общее
Полное имя : I:\Мелодии на звонок\17. Back To Earth.mp3
Формат : MPEG Audio
Размер файла : 2,90 Мбайт
Продолжительность : 1 м. 16 с.
Режим общего битрейта : Постоянный
Общий поток : 320 Кбит/сек
Кодирование произвёл : LAME in FL Studio 9
Дата записи : 2014
Библиотека кодирования : LAME3.98.2
BPM : 140

Аудио
Формат : MPEG Audio
Версия формата : Version 1
Профиль формата : Layer 3
Режим : Joint stereo
Продолжительность : 1 м. 16 с.
Вид битрейта : Постоянный
Битрейт : 320 Кбит/сек
Каналы : 2 канала
Частота : 44,1 КГц
Метод сжатия : С потерями
Размер потока : 2,90 Мбайт (100%)
Библиотека кодирования : LAME3.98.2

Общее
Полное имя : I:\Мелодии на звонок\18. Vremya i Steklo.mp3
Формат : MPEG Audio
Размер файла : 1,16 Мбайт
Продолжительность : 30 с.
Режим общего битрейта : Постоянный
Общий поток : 320 Кбит/сек
Кодирование произвёл : LAME in FL Studio 9
Дата записи : 2014
Библиотека кодирования : LAME3.98.2ЄЄЄЄЄЄЄЄЄЄ
BPM : 140

Аудио
Формат : MPEG Audio
Версия формата : Version 1
Профиль формата : Layer 3
Режим : Joint stereo
Расширение режима : MS Stereo
Продолжительность : 30 с.
Вид битрейта : Постоянный
Битрейт : 320 Кбит/сек
Каналы : 2 канала
Частота : 44,1 КГц
Метод сжатия : С потерями
Размер потока : 1,16 Мбайт (100%)
Библиотека кодирования : LAME3.98.2ЄЄЄЄЄЄЄЄЄЄ

Общее
Полное имя : I:\Мелодии на звонок\19. Lightning.mp3
Формат : MPEG Audio
Размер файла : 1,62 Мбайт
Продолжительность : 42 с.
Режим общего битрейта : Постоянный
Общий поток : 320 Кбит/сек
Кодирование произвёл : LAME in FL Studio 9
Дата записи : 2014
Библиотека кодирования : LAME3.98.2
BPM : 140

Аудио
Формат : MPEG Audio
Версия формата : Version 1
Профиль формата : Layer 3
Режим : Joint stereo
Расширение режима : MS Stereo
Продолжительность : 42 с.
Вид битрейта : Постоянный
Битрейт : 320 Кбит/сек
Каналы : 2 канала
Частота : 44,1 КГц
Метод сжатия : С потерями
Размер потока : 1,62 Мбайт (100%)
Библиотека кодирования : LAME3.98.2

Общее
Полное имя : I:\Мелодии на звонок\20. ID 309.mp3
Формат : MPEG Audio
Размер файла : 3,72 Мбайт
Продолжительность : 1 м. 37 с.
Режим общего битрейта : Постоянный
Общий поток : 320 Кбит/сек
Кодирование произвёл : LAME in FL Studio 9
Дата записи : 2014
Библиотека кодирования : LAME3.98.2ЄЄЄЄЄЄЄЄЄЄ
BPM : 140

Аудио
Формат : MPEG Audio
Версия формата : Version 1
Профиль формата : Layer 3
Режим : Joint stereo
Продолжительность : 1 м. 37 с.
Вид битрейта : Постоянный
Битрейт : 320 Кбит/сек
Каналы : 2 канала
Частота : 44,1 КГц
Метод сжатия : С потерями
Размер потока : 3,72 Мбайт (100%)
Библиотека кодирования : LAME3.98.2ЄЄЄЄЄЄЄЄЄЄ

Общее
Полное имя : I:\Мелодии на звонок\21. Invasion.mp3
Формат : MPEG Audio
Размер файла : 2,43 Мбайт
Продолжительность : 1 м. 3 с.
Режим общего битрейта : Постоянный
Общий поток : 320 Кбит/сек
Кодирование произвёл : LAME in FL Studio 10
Дата записи : 2012
Библиотека кодирования : LAME3.98.4ЄЄЄЄЄЄ@ / °
BPM : 130

Аудио
Формат : MPEG Audio
Версия формата : Version 1
Профиль формата : Layer 3
Режим : Joint stereo
Расширение режима : MS Stereo
Продолжительность : 1 м. 3 с.
Вид битрейта : Постоянный
Битрейт : 320 Кбит/сек
Каналы : 2 канала
Частота : 44,1 КГц
Метод сжатия : С потерями
Размер потока : 2,43 Мбайт (100%)
Библиотека кодирования : LAME3.98.4ЄЄЄЄЄЄ@ / °

Общее
Полное имя : I:\Мелодии на звонок\22. Rotunda.mp3
Формат : MPEG Audio
Размер файла : 2,69 Мбайт
Продолжительность : 1 м. 10 с.
Режим общего битрейта : Постоянный
Общий поток : 320 Кбит/сек
Кодирование произвёл : LAME in FL Studio 9
Дата записи : 2013
Библиотека кодирования : LAME3.98.2ЄЄЄЄЄЄЄЄЄЄ
BPM : 140

Аудио
Формат : MPEG Audio
Версия формата : Version 1
Профиль формата : Layer 3
Режим : Joint stereo
Расширение режима : MS Stereo
Продолжительность : 1 м. 10 с.
Вид битрейта : Постоянный
Битрейт : 320 Кбит/сек
Каналы : 2 канала
Частота : 44,1 КГц
Метод сжатия : С потерями
Размер потока : 2,69 Мбайт (100%)
Библиотека кодирования : LAME3.98.2ЄЄЄЄЄЄЄЄЄЄ

Общее
Полное имя : I:\Мелодии на звонок\23. Alesso.mp3
Формат : MPEG Audio
Размер файла : 2,49 Мбайт
Продолжительность : 1 м. 5 с.
Режим общего битрейта : Постоянный
Общий поток : 320 Кбит/сек
Кодирование произвёл : LAME in FL Studio 9
Дата записи : 2013
Библиотека кодирования : LAME3.98.2UUUD xФ‰L
BPM : 140

Аудио
Формат : MPEG Audio
Версия формата : Version 1
Профиль формата : Layer 3
Режим : Joint stereo
Продолжительность : 1 м. 5 с.
Вид битрейта : Постоянный
Битрейт : 320 Кбит/сек
Каналы : 2 канала
Частота : 44,1 КГц
Метод сжатия : С потерями
Размер потока : 2,49 Мбайт (100%)
Библиотека кодирования : LAME3.98.2UUUD xФ‰L

Общее
Полное имя : I:\Мелодии на звонок\24. Exploration of Space.mp3
Формат : MPEG Audio
Размер файла : 1,08 Мбайт
Продолжительность : 47 с.
Режим общего битрейта : Постоянный
Общий поток : 192 Кбит/сек
Кодирование произвёл : LAME in FL Studio 10
Дата записи : 2012
Библиотека кодирования : LAME3.98.4
BPM : 140

Аудио
Формат : MPEG Audio
Версия формата : Version 1
Профиль формата : Layer 3
Режим : Joint stereo
Расширение режима : MS Stereo
Продолжительность : 47 с.
Вид битрейта : Постоянный
Битрейт : 192 Кбит/сек
Каналы : 2 канала
Частота : 44,1 КГц
Метод сжатия : С потерями
Размер потока : 1,08 Мбайт (100%)
Библиотека кодирования : LAME3.98.4

Общее
Полное имя : I:\Мелодии на звонок\25. D#Fat.mp3
Формат : MPEG Audio
Размер файла : 1,13 Мбайт
Продолжительность : 29 с.
Режим общего битрейта : Постоянный
Общий поток : 320 Кбит/сек
Кодирование произвёл : LAME in FL Studio 9
Дата записи : 2014
Библиотека кодирования : LAME3.98.2ЄЄЄЄЄЄЄЄЄЄ
BPM : 140

Аудио
Формат : MPEG Audio
Версия формата : Version 1
Профиль формата : Layer 3
Режим : Joint stereo
Продолжительность : 29 с.
Вид битрейта : Постоянный
Битрейт : 320 Кбит/сек
Каналы : 2 канала
Частота : 44,1 КГц
Метод сжатия : С потерями
Размер потока : 1,13 Мбайт (100%)
Библиотека кодирования : LAME3.98.2ЄЄЄЄЄЄЄЄЄЄ

Общее
Полное имя : I:\Мелодии на звонок\26. Character.mp3
Формат : MPEG Audio
Размер файла : 2,00 Мбайт
Продолжительность : 52 с.
Режим общего битрейта : Постоянный
Общий поток : 320 Кбит/сек
Кодирование произвёл : LAME in FL Studio 9
Дата записи : 2014
Библиотека кодирования : LAME3.98.2
BPM : 140

Аудио
Формат : MPEG Audio
Версия формата : Version 1
Профиль формата : Layer 3
Режим : Joint stereo
Продолжительность : 52 с.
Вид битрейта : Постоянный
Битрейт : 320 Кбит/сек
Каналы : 2 канала
Частота : 44,1 КГц
Метод сжатия : С потерями
Размер потока : 2,00 Мбайт (100%)
Библиотека кодирования : LAME3.98.2

Общее
Полное имя : I:\Мелодии на звонок\27. Cama.mp3
Формат : MPEG Audio
Размер файла : 1,90 Мбайт
Продолжительность : 49 с.
Режим общего битрейта : Постоянный
Общий поток : 320 Кбит/сек
Кодирование произвёл : LAME in FL Studio 9
Дата записи : 2013
Библиотека кодирования : LAME3.98.2ЄЄЄЄЄЄЄЄЄЄ
BPM : 140

Аудио
Формат : MPEG Audio
Версия формата : Version 1
Профиль формата : Layer 3
Режим : Joint stereo
Продолжительность : 49 с.
Вид битрейта : Постоянный
Битрейт : 320 Кбит/сек
Каналы : 2 канала
Частота : 44,1 КГц
Метод сжатия : С потерями
Размер потока : 1,90 Мбайт (100%)
Библиотека кодирования : LAME3.98.2ЄЄЄЄЄЄЄЄЄЄ

Общее
Полное имя : I:\Мелодии на звонок\28. Payback.mp3
Формат : MPEG Audio
Размер файла : 4,18 Мбайт
Продолжительность : 1 м. 49 с.
Режим общего битрейта : Постоянный
Общий поток : 320 Кбит/сек
Кодирование произвёл : LAME in FL Studio 9
Дата записи : 2014
Библиотека кодирования : LAME3.98.2ЄЄЄЄЄЄЄЄЄЄ
BPM : 140

Аудио
Формат : MPEG Audio
Версия формата : Version 1
Профиль формата : Layer 3
Режим : Joint stereo
Продолжительность : 1 м. 49 с.
Вид битрейта : Постоянный
Битрейт : 320 Кбит/сек
Каналы : 2 канала
Частота : 44,1 КГц
Метод сжатия : С потерями
Размер потока : 4,18 Мбайт (100%)
Библиотека кодирования : LAME3.98.2ЄЄЄЄЄЄЄЄЄЄ

Общее
Полное имя : I:\Мелодии на звонок\29. Troll 1.MP3
Формат : MPEG Audio
Размер файла : 2,93 Мбайт
Продолжительность : 1 м. 16 с.
Режим общего битрейта : Постоянный
Общий поток : 320 Кбит/сек
Кодирование произвёл : LAME in FL Studio 10
Дата записи : 2012
Библиотека кодирования : LAME3.98.4UUUUUEёµv
BPM : 130

Аудио
Формат : MPEG Audio
Версия формата : Version 1
Профиль формата : Layer 3
Режим : Joint stereo
Расширение режима : MS Stereo
Продолжительность : 1 м. 17 с.
Вид битрейта : Постоянный
Битрейт : 320 Кбит/сек
Каналы : 2 канала
Частота : 44,1 КГц
Метод сжатия : С потерями
Размер потока : 2,93 Мбайт (100%)
Библиотека кодирования : LAME3.98.4UUUUUEёµv

Общее
Полное имя : I:\Мелодии на звонок\30. Violetta.mp3
Формат : MPEG Audio
Размер файла : 3,34 Мбайт
Продолжительность : 1 м. 27 с.
Режим общего битрейта : Постоянный
Общий поток : 320 Кбит/сек
Кодирование произвёл : LAME in FL Studio 9
Дата записи : 2014
Библиотека кодирования : LAME3.98.2
BPM : 140

Аудио
Формат : MPEG Audio
Версия формата : Version 1
Профиль формата : Layer 3
Режим : Joint stereo
Продолжительность : 1 м. 27 с.
Вид битрейта : Постоянный
Битрейт : 320 Кбит/сек
Каналы : 2 канала
Частота : 44,1 КГц
Метод сжатия : С потерями
Размер потока : 3,34 Мбайт (100%)
Библиотека кодирования : LAME3.98.2

Общее
Полное имя : I:\Мелодии на звонок\31. Interstate.mp3
Формат : MPEG Audio
Размер файла : 2,63 Мбайт
Продолжительность : 1 м. 9 с.
Режим общего битрейта : Постоянный
Общий поток : 320 Кбит/сек
Кодирование произвёл : LAME in FL Studio 9
Дата записи : 2014
Библиотека кодирования : LAME3.98.2
BPM : 140

Аудио
Формат : MPEG Audio
Версия формата : Version 1
Профиль формата : Layer 3
Режим : Joint stereo
Продолжительность : 1 м. 9 с.
Вид битрейта : Постоянный
Битрейт : 320 Кбит/сек
Каналы : 2 канала
Частота : 44,1 КГц
Метод сжатия : С потерями
Размер потока : 2,63 Мбайт (100%)
Библиотека кодирования : LAME3.98.2

Общее
Полное имя : I:\Мелодии на звонок\32. Ready to fall.mp3
Формат : MPEG Audio
Размер файла : 1,36 Мбайт
Продолжительность : 44 с.
Режим общего битрейта : Постоянный
Общий поток : 256 Кбит/сек
Кодирование произвёл : LAME in FL Studio 9
Дата записи : 2013
Библиотека кодирования : LAME3.98.2
BPM : 140

Аудио
Формат : MPEG Audio
Версия формата : Version 1
Профиль формата : Layer 3
Режим : Joint stereo
Продолжительность : 44 с.
Вид битрейта : Постоянный
Битрейт : 256 Кбит/сек
Каналы : 2 канала
Частота : 44,1 КГц
Метод сжатия : С потерями
Размер потока : 1,36 Мбайт (100%)
Библиотека кодирования : LAME3.98.2

Общее
Полное имя : I:\Мелодии на звонок\33. City Lights.mp3
Формат : MPEG Audio
Размер файла : 4,28 Мбайт
Продолжительность : 1 м. 52 с.
Режим общего битрейта : Постоянный
Общий поток : 320 Кбит/сек
Кодирование произвёл : LAME in FL Studio 9
Дата записи : 2014
Библиотека кодирования : LAME3.98.2‹«Ъ№\®<\I
BPM : 140

Аудио
Формат : MPEG Audio
Версия формата : Version 1
Профиль формата : Layer 3
Режим : Joint stereo
Продолжительность : 1 м. 52 с.
Вид битрейта : Постоянный
Битрейт : 320 Кбит/сек
Каналы : 2 канала
Частота : 44,1 КГц
Метод сжатия : С потерями
Размер потока : 4,28 Мбайт (100%)
Библиотека кодирования : LAME3.98.2‹«Ъ№\®<\I

Общее
Полное имя : I:\Мелодии на звонок\34. These Silent hearts.mp3
Формат : MPEG Audio
Размер файла : 1,12 Мбайт
Продолжительность : 29 с.
Режим общего битрейта : Постоянный
Общий поток : 320 Кбит/сек
Кодирование произвёл : LAME in FL Studio 9
Дата записи : 2013
Библиотека кодирования : LAME3.98.2
BPM : 140

Аудио
Формат : MPEG Audio
Версия формата : Version 1
Профиль формата : Layer 3
Режим : Joint stereo
Продолжительность : 29 с.
Вид битрейта : Постоянный
Битрейт : 320 Кбит/сек
Каналы : 2 канала
Частота : 44,1 КГц
Метод сжатия : С потерями
Размер потока : 1,12 Мбайт (100%)
Библиотека кодирования : LAME3.98.2

Общее
Полное имя : I:\Мелодии на звонок\35. Troll 2.mp3
Формат : MPEG Audio
Размер файла : 2,00 Мбайт
Продолжительность : 52 с.
Режим общего битрейта : Постоянный
Общий поток : 320 Кбит/сек
Кодирование произвёл : LAME in FL Studio 9
Дата записи : 2013
Библиотека кодирования : LAME3.98.2ЄЄЄЄЄЄЄЄЄЄ
BPM : 140

Аудио
Формат : MPEG Audio
Версия формата : Version 1
Профиль формата : Layer 3
Режим : Joint stereo
Продолжительность : 52 с.
Вид битрейта : Постоянный
Битрейт : 320 Кбит/сек
Каналы : 2 канала
Частота : 44,1 КГц
Метод сжатия : С потерями
Размер потока : 2,00 Мбайт (100%)
Библиотека кодирования : LAME3.98.2ЄЄЄЄЄЄЄЄЄЄ

Общее
Полное имя : I:\Мелодии на звонок\36. Well Be Coming Back.mp3
Формат : MPEG Audio
Размер файла : 2,48 Мбайт
Продолжительность : 1 м. 5 с.
Режим общего битрейта : Постоянный
Общий поток : 320 Кбит/сек
Кодирование произвёл : LAME in FL Studio 9
Дата записи : 2014
Библиотека кодирования : LAME
BPM : 140

Аудио
Формат : MPEG Audio
Версия формата : Version 1
Профиль формата : Layer 3
Режим : Joint stereo
Расширение режима : MS Stereo
Продолжительность : 1 м. 5 с.
Вид битрейта : Постоянный
Битрейт : 320 Кбит/сек
Каналы : 2 канала
Частота : 44,1 КГц
Метод сжатия : С потерями
Размер потока : 2,48 Мбайт (100%)
Библиотека кодирования : LAME

Общее
Полное имя : I:\Мелодии на звонок\37. Broken tonigt.mp3
Формат : MPEG Audio
Размер файла : 593 Кбайт
Продолжительность : 15 с.
Режим общего битрейта : Постоянный
Общий поток : 320 Кбит/сек
Библиотека кодирования : LAME3.98.2

Аудио
Формат : MPEG Audio
Версия формата : Version 1
Профиль формата : Layer 3
Продолжительность : 15 с.
Вид битрейта : Постоянный
Битрейт : 320 Кбит/сек
Каналы : 2 канала
Частота : 44,1 КГц
Метод сжатия : С потерями
Размер потока : 593 Кбайт (100%)
Библиотека кодирования : LAME3.98.2

Общее
Полное имя : I:\Мелодии на звонок\38. Somebody that i used to know.mp3
Формат : MPEG Audio
Размер файла : 3,73 Мбайт
Продолжительность : 1 м. 37 с.
Режим общего битрейта : Постоянный
Общий поток : 320 Кбит/сек
Кодирование произвёл : LAME in FL Studio 9
Дата записи : 2014
Библиотека кодирования : LAME3.98.2ЄЄЄЄЄЄЄЄЄЄ
BPM : 140

Аудио
Формат : MPEG Audio
Версия формата : Version 1
Профиль формата : Layer 3
Режим : Joint stereo
Расширение режима : MS Stereo
Продолжительность : 1 м. 37 с.
Вид битрейта : Постоянный
Битрейт : 320 Кбит/сек
Каналы : 2 канала
Частота : 44,1 КГц
Метод сжатия : С потерями
Размер потока : 3,73 Мбайт (100%)
Библиотека кодирования : LAME3.98.2ЄЄЄЄЄЄЄЄЄЄ

Общее
Полное имя : I:\Мелодии на звонок\39. T 157.mp3
Формат : MPEG Audio
Размер файла : 4,76 Мбайт
Продолжительность : 5 м. 12 с.
Режим общего битрейта : Постоянный
Общий поток : 128 Кбит/сек
Кодирование произвёл : LAME in FL Studio 10
Дата записи : 2012
Библиотека кодирования : LAME3.98.4UUUUUUUU;
BPM : 130

Аудио
Формат : MPEG Audio
Версия формата : Version 1
Профиль формата : Layer 3
Режим : Joint stereo
Продолжительность : 5 м. 12 с.
Вид битрейта : Постоянный
Битрейт : 128 Кбит/сек
Каналы : 2 канала
Частота : 44,1 КГц
Метод сжатия : С потерями
Размер потока : 4,76 Мбайт (100%)
Библиотека кодирования : LAME3.98.4UUUUUUUU;

Общее
Полное имя : I:\Мелодии на звонок\40. Xiing.mp3
Формат : MPEG Audio
Размер файла : 2,20 Мбайт
Продолжительность : 57 с.
Режим общего битрейта : Постоянный
Общий поток : 320 Кбит/сек
Кодирование произвёл : LAME in FL Studio 9
Дата записи : 2014
Библиотека кодирования : LAME3.98.2ЄЄЄЄЄЄЄЄЄЄ
BPM : 140

Аудио
Формат : MPEG Audio
Версия формата : Version 1
Профиль формата : Layer 3
Режим : Joint stereo
Продолжительность : 57 с.
Вид битрейта : Постоянный
Битрейт : 320 Кбит/сек
Каналы : 2 канала
Частота : 44,1 КГц
Метод сжатия : С потерями
Размер потока : 2,20 Мбайт (100%)
Библиотека кодирования : LAME3.98.2ЄЄЄЄЄЄЄЄЄЄ

Общее
Полное имя : I:\Мелодии на звонок\41. Flight 101.mp3
Формат : MPEG Audio
Размер файла : 4,31 Мбайт
Продолжительность : 1 м. 53 с.
Режим общего битрейта : Постоянный
Общий поток : 320 Кбит/сек
Кодирование произвёл : LAME in FL Studio 9
Дата записи : 2014
Библиотека кодирования : LAME3.98.2
BPM : 140

Аудио
Формат : MPEG Audio
Версия формата : Version 1
Профиль формата : Layer 3
Режим : Joint stereo
Продолжительность : 1 м. 53 с.
Вид битрейта : Постоянный
Битрейт : 320 Кбит/сек
Каналы : 2 канала
Частота : 44,1 КГц
Метод сжатия : С потерями
Размер потока : 4,31 Мбайт (100%)
Библиотека кодирования : LAME3.98.2

Общее
Полное имя : I:\Мелодии на звонок\42. Apprehension.mp3
Формат : MPEG Audio
Размер файла : 7,15 Мбайт
Продолжительность : 4 м. 30 с.
Режим общего битрейта : Постоянный
Общий поток : 320 Кбит/сек
Трек/Положение : 1
Библиотека кодирования : LAME3.99r
Примечание : www.dvdvideosoft.com

Аудио
Формат : MPEG Audio
Версия формата : Version 1
Профиль формата : Layer 3
Режим : Joint stereo
Продолжительность : 4 м. 30 с.
Вид битрейта : Постоянный
Битрейт : 320 Кбит/сек
Каналы : 2 канала
Частота : 48,0 КГц
Метод сжатия : С потерями
Размер потока : 10,3 Мбайт
Библиотека кодирования : LAME3.99r
Настройки программы : -m j -V 4 -q 3 -lowpass 20.5

Общее
Полное имя : I:\Мелодии на звонок\43. Musika.mp3
Формат : MPEG Audio
Размер файла : 1,11 Мбайт
Продолжительность : 28 с.
Режим общего битрейта : Постоянный
Общий поток : 320 Кбит/сек
Кодирование произвёл : LAME in FL Studio 9
Дата записи : 2013
Библиотека кодирования : LAME3.98.2ЄЄЄЄЄЄЄЄЄЄ
BPM : 140

Аудио
Формат : MPEG Audio
Версия формата : Version 1
Профиль формата : Layer 3
Режим : Joint stereo
Продолжительность : 29 с.
Вид битрейта : Постоянный
Битрейт : 320 Кбит/сек
Каналы : 2 канала
Частота : 44,1 КГц
Метод сжатия : С потерями
Размер потока : 1,11 Мбайт (100%)
Библиотека кодирования : LAME3.98.2ЄЄЄЄЄЄЄЄЄЄ

Общее
Полное имя : I:\Мелодии на звонок\44. Forever.mp3
Формат : MPEG Audio
Размер файла : 4,42 Мбайт
Продолжительность : 1 м. 55 с.
Режим общего битрейта : Постоянный
Общий поток : 320 Кбит/сек
Кодирование произвёл : LAME in FL Studio 9
Дата записи : 2014
Библиотека кодирования : LAME3.98.2ЄЄЄЄЄЄЄЄЄЄ
BPM : 140

Аудио
Формат : MPEG Audio
Версия формата : Version 1
Профиль формата : Layer 3
Режим : Joint stereo
Расширение режима : MS Stereo
Продолжительность : 1 м. 56 с.
Вид битрейта : Постоянный
Битрейт : 320 Кбит/сек
Каналы : 2 канала
Частота : 44,1 КГц
Метод сжатия : С потерями
Размер потока : 4,42 Мбайт (100%)
Библиотека кодирования : LAME3.98.2ЄЄЄЄЄЄЄЄЄЄ

Общее
Полное имя : I:\Мелодии на звонок\45. Alive.mp3
Формат : MPEG Audio
Размер файла : 4,28 Мбайт
Продолжительность : 1 м. 52 с.
Режим общего битрейта : Постоянный
Общий поток : 320 Кбит/сек
Кодирование произвёл : LAME in FL Studio 9
Дата записи : 2014
Библиотека кодирования : LAME3.98.2
BPM : 140

Аудио
Формат : MPEG Audio
Версия формата : Version 1
Профиль формата : Layer 3
Режим : Joint stereo
Продолжительность : 1 м. 52 с.
Вид битрейта : Постоянный
Битрейт : 320 Кбит/сек
Каналы : 2 канала
Частота : 44,1 КГц
Метод сжатия : С потерями
Размер потока : 4,28 Мбайт (100%)
Библиотека кодирования : LAME3.98.2

Общее
Полное имя : I:\Мелодии на звонок\46. Wake me up.mp3
Формат : MPEG Audio
Размер файла : 1,80 Мбайт
Продолжительность : 47 с.
Режим общего битрейта : Постоянный
Общий поток : 320 Кбит/сек
Кодирование произвёл : LAME in FL Studio 9
Дата записи : 2013
Библиотека кодирования : LAME3.98.2
BPM : 140

Аудио
Формат : MPEG Audio
Версия формата : Version 1
Профиль формата : Layer 3
Режим : Joint stereo
Продолжительность : 47 с.
Вид битрейта : Постоянный
Битрейт : 320 Кбит/сек
Каналы : 2 канала
Частота : 44,1 КГц
Метод сжатия : С потерями
Размер потока : 1,80 Мбайт (100%)
Библиотека кодирования : LAME3.98.2

Общее
Полное имя : I:\Мелодии на звонок\47. DRop.mp3
Формат : MPEG Audio
Размер файла : 4,28 Мбайт
Продолжительность : 1 м. 52 с.
Режим общего битрейта : Постоянный
Общий поток : 320 Кбит/сек
Кодирование произвёл : LAME in FL Studio 9
Дата записи : 2013
Библиотека кодирования : LAME3.98.2
BPM : 140

Аудио
Формат : MPEG Audio
Версия формата : Version 1
Профиль формата : Layer 3
Режим : Joint stereo
Расширение режима : MS Stereo
Продолжительность : 1 м. 52 с.
Вид битрейта : Постоянный
Битрейт : 320 Кбит/сек
Каналы : 2 канала
Частота : 44,1 КГц
Метод сжатия : С потерями
Размер потока : 4,28 Мбайт (100%)
Библиотека кодирования : LAME3.98.2

Общее
Полное имя : I:\Мелодии на звонок\48. Genesis.mp3
Формат : MPEG Audio
Размер файла : 2,35 Мбайт
Продолжительность : 1 м. 1 с.
Режим общего битрейта : Постоянный
Общий поток : 320 Кбит/сек
Кодирование произвёл : LAME in FL Studio 9
Дата записи : 2014
Библиотека кодирования : LAME3.98.2
BPM : 140

Аудио
Формат : MPEG Audio
Версия формата : Version 1
Профиль формата : Layer 3
Режим : Joint stereo
Продолжительность : 1 м. 1 с.
Вид битрейта : Постоянный
Битрейт : 320 Кбит/сек
Каналы : 2 канала
Частота : 44,1 КГц
Метод сжатия : С потерями
Размер потока : 2,35 Мбайт (100%)
Библиотека кодирования : LAME3.98.2

Общее
Полное имя : I:\Мелодии на звонок\49. J'ai Envie De Toi.mp3
Формат : MPEG Audio
Размер файла : 574 Кбайт
Продолжительность : 14 с.
Режим общего битрейта : Постоянный
Общий поток : 320 Кбит/сек
Кодирование произвёл : LAME in FL Studio 9
Дата записи : 2014
Библиотека кодирования : LAME3.98.2
BPM : 140

Аудио
Формат : MPEG Audio
Версия формата : Version 1
Профиль формата : Layer 3
Режим : Joint stereo
Продолжительность : 14 с.
Вид битрейта : Постоянный
Битрейт : 320 Кбит/сек
Каналы : 2 канала
Частота : 44,1 КГц
Метод сжатия : С потерями
Размер потока : 573 Кбайт (100%)
Библиотека кодирования : LAME3.98.2

Общее
Полное имя : I:\Мелодии на звонок\50. Until The End.mp3
Формат : MPEG Audio
Размер файла : 3,80 Мбайт
Продолжительность : 1 м. 39 с.
Режим общего битрейта : Постоянный
Общий поток : 320 Кбит/сек
Кодирование произвёл : LAME in FL Studio 9
Дата записи : 2013
Библиотека кодирования : LAME3.98.2ЄЄЄЄЄЄЄЄЄЄ
BPM : 140

Аудио
Формат : MPEG Audio
Версия формата : Version 1
Профиль формата : Layer 3
Режим : Joint stereo
Продолжительность : 1 м. 39 с.
Вид битрейта : Постоянный
Битрейт : 320 Кбит/сек
Каналы : 2 канала
Частота : 44,1 КГц
Метод сжатия : С потерями
Размер потока : 3,80 Мбайт (100%)
Библиотека кодирования : LAME3.98.2ЄЄЄЄЄЄЄЄЄЄ
Вашему вниманию 50 самых изумительных треков на звонок...Таких мелодии вы не слышали ни у кого и никогда...Тут найдется мелодия для каждого: для тех кто любит спокойные звонки, для тех кому нравятся зажигательные и позитивные...Смело ставьте мелодию в нарастающий режим и наслаждайтесь уникальной мелодией вызова...
В треклист входят работы легендарных диджеев планеты, обрезанные специально на звонок.
Время раздачи: круглосуточно
[NNM-Club.me]_Melodii na zvonok.torrent
 Торрент: Платиновая раздача  Зарегистрирован
 
Скачать


Примагнититься
 Зарегистрирован:   21 Мар 2014 13:47:18
 Размер:   143 MB  (
 Рейтинг:   4,5 (Голосов: 59)
 Поблагодарили:   247
 Проверка:   Оформление проверено модератором 21 Мар 2014 15:07:26
Как cкачать  ·  Как раздать  ·  Правильно оформить  ·  Поднять ратио!  
Mihrentij
Стаж: 9 лет
Сообщений: 338
Ratio: 3,599
100%
belgium.gif
Сплошной шум. Это не мелодии для звонка, а нарезка из песен обрывающихся на полуслове. Вряд ли такое сделали (легендарные диджеи планеты, обрезанные специально на звонок.) Не нравится.
RamRIDK
Стаж: 9 лет 4 мес.
Сообщений: 84
Ratio: 61,691
Поблагодарили: 600
100%
Откуда: где-то рядом
stlucia.gif
Не в обиду. Но какой-то "босяцкий подгон", а не музон. Не хватает тематики. реплик из данного стиля.
Показать сообщения:   
Начать новую тему   Ответить на тему    Торрент-трекер NNM-Club -> Мультимедиа и прочее -> Мобильное Аудио Часовой пояс: GMT + 3
Страница 1 из 1