Классический форум-трекер
canvas not supported
Нас вместе: 4 081 391

БГ - Живьем в Темяшкинхолле (1982) [FLAC 2.0 24/192|image (OpenReel-Rip)]<Singer/Songwriter>


 
 
RSS
Начать новую тему   Ответить на тему    Торрент-трекер NNM-Club -> HD Audio и Многоканальная Музыка -> Vinyl-Rip и Hand-Made
Автор Сообщение
tegoffs ®
Виниловод. Сталкер
Стаж: 11 лет 10 мес.
Сообщений: 2931
Ratio: 17,532
Поблагодарили: 9476
100%
Откуда: мне знать?
honduras.gif
БГ - Живьем в Темяшкинхолле (1982)
Год записи: 1982
Год выпуска: 2013 (эксклюзивно для NNM-Club, при перепосте ссылка обязательна)
Лейбл: Самиздат
Жанр: Singer/Songwriter
Продолжительность: 01:13:31

Кодек: FLAC 2.0 24/192
Тип рипа: image+.cue


Треклист:
01. Стучаться в Двери Травы (3:06)
02. Опираться о Платан (4:13)
03. Десять Прекрасных Дам (4:31)
04. Сторож Сергеев (2:57)
05. Сельские Леди и Джентльмены (4:04)
06. ... о символах (разговоры) (2:00)
07. Возвращение Домой (2:26)
08. Контраданс (4:34)
09. Песня №2 (4:03)
10. Небо Становится Ближе (4:49)
11. Сталь (4:20)
12. ... об Аквариуме (разговоры) (6:35)
13. Дорога 21 (3:16)
14. Ключи от Её дверей (3:17)
15. Как Движется Лёд (3:37)
16. Рок 'Н' Ролл Мертв (4:12)
17. ... о роке (разговоры) (2:57)
18. King's Daughter/What is Gone? (4:56)
19. Песня для Нового Быта (3:39)
Концерт состялся в комнате отдыха в общаге мат-меха ЛГУ 7 октября 1982 года. Было человек 20 - типичный квартирник, за одним исключением - весь концерт народ молчаливо внимал и задавал вопросы между песнями. В целом полное ощущение научного отчета, аплодировали в конце. К сожалению я не записал всех вопросов-ответов, пленка была одна, боялся, что концерт весь не войдет.
Писалось это на Илеть-101, в 2010 оцифровано через ESI Juli@. Параметры оцифровки несколько бессмысленны (192/24), но при попытках даунсэмплинга запись становилась хуже. Поэтому я решил оставить все как есть.
Я спрашивал менеджмент БГ насчет свободной раздачи этого концерта, прямого ответа не было. С другой стороны в одном из интервью БГ определил свое отношение к такого рода записям - записано, значит народное, бери всяк, кто хочет.
Если кому-то понравится запись, и он оставит ее себе в коллекцию, он всегда сможет зайти на круги и купить там трек, другой, чем поддержать Аквариум.
З.Ы.: обложка - скан коробки (лента внутри, автограф БГ - подлинный).
З.З.Ы.: параметры (чем богаты тем и рады - шум ленты на высоких частотах и глюки карты-тракта на еще более высоких)
Код:

Общее
Полное имя                               : E:\Music - main collection\русские\БГ\1982-Живьем в Темяшкинхолле\BG01.flac
Формат                                   : FLAC
Формат/Информация                        : Free Lossless Audio Codec
Размер файла                             : 1,44 Гбайт
Продолжительность                        : 41 м.
Режим общего битрейта                    : Переменный
Общий поток                              : 5034 Кбит/сек
Дата записи                              : 2011-06-05T18:18:08+04:00

Аудио
Формат                                   : FLAC
Формат/Информация                        : Free Lossless Audio Codec
Продолжительность                        : 41 м.
Вид битрейта                             : Переменный
Битрейт                                  : 5034 Кбит/сек
Каналы                                   : 2 канала
Частота                                  : 192 КГц
Битовая глубина                          : 24 бит
Размер потока                            : 1,44 Гбайт (100%)
Библиотека кодирования                   : libFLAC 1.2.1 (UTC 2007-09-17)

Общее
Полное имя                               : E:\Music - main collection\русские\БГ\1982-Живьем в Темяшкинхолле\BG02.flac
Формат                                   : FLAC
Формат/Информация                        : Free Lossless Audio Codec
Размер файла                             : 1,18 Гбайт
Продолжительность                        : 32 м.
Режим общего битрейта                    : Переменный
Общий поток                              : 5193 Кбит/сек
Дата записи                              : 2011-06-05T19:13:50+04:00

Аудио
Формат                                   : FLAC
Формат/Информация                        : Free Lossless Audio Codec
Продолжительность                        : 32 м.
Вид битрейта                             : Переменный
Битрейт                                  : 5193 Кбит/сек
Каналы                                   : 2 канала
Частота                                  : 192 КГц
Битовая глубина                          : 24 бит
Размер потока                            : 1,18 Гбайт (100%)
Библиотека кодирования                   : libFLAC 1.2.1 (UTC 2007-09-17)
Код:

foobar2000 1.2.3 / Dynamic Range Meter 1.1.1
log date: 2013-08-05 20:48:00

--------------------------------------------------------------------------------
Analyzed: БГ / Живьем в Темяшкинхолле
--------------------------------------------------------------------------------

DR         Peak         RMS     Duration Track
--------------------------------------------------------------------------------
DR12      -5.46 dB   -23.22 dB      3:06 01-Стучаться в Двери Травы
DR14      -6.61 dB   -23.60 dB      4:13 02-Опираться о Платан
DR13      -6.24 dB   -24.38 dB      4:31 03-Десять Прекрасных Дам
DR12      -9.01 dB   -25.66 dB      2:57 04-Сторож Сергеев
DR12      -6.00 dB   -22.46 dB      4:04 05-Сельские Леди и Джентльмены
DR18     -13.39 dB   -35.23 dB      2:00 06-... о символах (разговоры)
DR12      -6.13 dB   -22.33 dB      2:26 07-Возвращение Домой
DR14      -8.28 dB   -27.42 dB      4:34 08-Контраданс
DR11      -5.79 dB   -20.98 dB      4:03 09-Песня №2
DR12      -6.06 dB   -23.53 dB      4:49 10-Небо Становится Ближе
DR11      -5.64 dB   -21.68 dB      4:20 11-Сталь
DR17     -18.10 dB   -39.36 dB      6:35 12-... об Аквариуме (разговоры)
DR11      -7.71 dB   -22.21 dB      3:16 13-Дорога 21
DR11      -8.70 dB   -25.10 dB      3:17 14-Ключи от Её дверей
DR13     -10.98 dB   -27.90 dB      3:37 15-Как Движется Лёд
DR10      -8.25 dB   -22.54 dB      4:12 16-Рок 'Н' Ролл Мертв
DR18     -16.31 dB   -39.90 dB      2:57 17-... о роке (разговоры)
DR13     -10.45 dB   -29.66 dB      4:56 18-King's Daughter/What is Gone?
DR13      -9.01 dB   -26.54 dB      3:39 19-Песня для Нового Быта
--------------------------------------------------------------------------------

Number of tracks:  19
Official DR value: DR13

Samplerate:        192000 Hz
Channels:          2
Bits per sample:   24
Bitrate:           5193 kbps
Codec:             FLAC
================================================================================
Время раздачи: 24/7 по возможности до пяти скачавших, очень плохой канал - будьте терпеливы
[NNM-Club.me]_1982-ZHiv'em v Temyashkinholle.torrent
 Торрент: Платиновая раздача  Зарегистрирован
 
Скачать


 Зарегистрирован:   06 Авг 2013 05:19:56
 Размер:   2,63 GB  (
 Рейтинг:   4,9 (Голосов: 25)
 Поблагодарили:   70
 Проверка:   Оформление проверено модератором 06 Авг 2013 05:23:30
Как cкачать  ·  Как раздать  ·  Правильно оформить  ·  Поднять ратио!  
necromanc
Стаж: 10 лет
Сообщений: 1385
Ratio: 15,435
100%
krevedko.png
спасибо. А здесь только БГ под гитару я так понимаю?
tegoffs ®
Виниловод. Сталкер
Стаж: 11 лет 10 мес.
Сообщений: 2931
Ratio: 17,532
Поблагодарили: 9476
100%
Откуда: мне знать?
honduras.gif
necromanc
Да, он один приехал тогда.

_________________
It's only rock 'n' roll but I like it! (c) Jagger and Richards
сср
Стаж: 9 лет 6 мес.
Сообщений: 2
Ratio: 2,192
41.76%
ukraine.gif
МЕГАСПАСИБО!!!и параметры то что надо
Показать сообщения:   
Начать новую тему   Ответить на тему    Торрент-трекер NNM-Club -> HD Audio и Многоканальная Музыка -> Vinyl-Rip и Hand-Made Часовой пояс: GMT + 3
Страница 1 из 1