Классический форум-трекер
canvas not supported
Нас вместе: 4 076 862

Звёздные Врата: Атлантида Фанфик / Stargate: Atlantis Fanfiction (2004-2009) HDTVRip (Серии 1-3 (3)) [Lostfilm]


 
 
RSS
Начать новую тему   Ответить на тему    Торрент-трекер NNM-Club -> Зарубежные сериалы -> Звездные врата / Stargate
Автор Сообщение
eremin_makcim ®
Стаж: 8 лет 6 мес.
Сообщений: 152
Ratio: 341,782
Раздал: 49,23 TB
Поблагодарили: 11764
100%
Откуда: Котлы
pirates.png

Звёздные Врата: Атлантида Фанфик / Stargate: Atlantis Fanfiction (2004-2009) HDTVRip (Серии 1-3 (3)) [Lostfilm]
Год выпуска: 2004-2009
Жанр: Фантастика, Приключения

Описание фильма:
Фанфик (также фэнфик; от англ. fan — поклонник и fiction — художественная литература) — разновидность творчества поклонников популярных произведений искусства, производное литературное произведение, основанное на каком-либо оригинальном произведении (как правило, литературном или кинематографическом), использующее его идеи сюжета и/или персонажей. Фанфик может представлять собой продолжение, предысторию, пародию, «альтернативную вселенную», кроссовер («переплетение» нескольких произведений) и так далее. Над фанфиком работал Kravec DeadMan.

Режиссер: Бред Райт/Brad Wright
Актеры: Джо Флениган/Joe Flanigan, Тори Хиггинсон/Torri Higginson, Девид Хьюлет/David Hewlett, Рэйчел Латрелл/Rachel Luttrell, Рейнбоу Франкс/Rainbow Francks, Пол МакГиллон/Paul McGillion

Продолжительность: ~00:03:00 серия
Качество видео: HDTVRip
Перевод: Многоголосый закадровый
Релиз группа: lostfilm



Видеокодек: Xvid
Битрейт видео: ~811 Кбит/сек
Размер кадра: 624x352, (16:9), 23.976 fps
Аудиокодек: MP3
Битрейт аудио: 128 Кбит/сек, 48 kHz, MPEG Layer 3, 2 ch
Общее
Полное имя : D:\на раздачу\Звёздные врата Атлантида Фанфик\StarGate.Atlantis.Fanfiction.2.rus.LostFilm.TV.avi
Формат : AVI
Формат/Информация : Audio Video Interleave
Размер файла : 23,8 Мбайт
Продолжительность : 3 м. 56 с.
Общий поток : 846 Кбит/сек
Программа кодирования : Nandub v1.0rc2
Библиотека кодирования : Nandub build 1853/release

Видео
Идентификатор : 0
Формат : MPEG-4 Visual
Профиль формата : Advanced Simple@L5
Параметр BVOP формата : 1
Параметр QPel формата : Нет
Параметр GMC формата : Без точки перехода
Параметр матрицы формата : Выборочная
Идентификатор кодека : XVID
Идентификатор кодека/Подсказка : XviD
Продолжительность : 3 м. 56 с.
Битрейт : 705 Кбит/сек
Ширина : 624 пикселя
Высота : 352 пикселя
Соотношение сторон : 16:9
Частота кадров : 23,976 кадра/сек
Цветовое пространство : YUV
Субдискретизация насыщенности : 4:2:0
Битовая глубина : 8 бит
Тип развёртки : Прогрессивная
Метод сжатия : С потерями
Бит/(Пиксели*Кадры) : 0.134
Размер потока : 19,9 Мбайт (83%)
Библиотека кодирования : XviD 1.2.0.dev47 (UTC 2006-11-01)

Аудио
Идентификатор : 1
Формат : MPEG Audio
Версия формата : Version 1
Профиль формата : Layer 3
Режим : Joint stereo
Расширение режима : MS Stereo
Идентификатор кодека : 55
Идентификатор кодека/Подсказка : MP3
Продолжительность : 3 м. 56 с.
Вид битрейта : Постоянный
Битрейт : 128 Кбит/сек
Каналы : 2 канала
Частота : 48,0 КГц
Метод сжатия : С потерями
Размер потока : 3,61 Мбайт (15%)
Выравнивание : Соединение по промежуткам
Продолжительность промежутка : 24 мс. (0,58 видеокадр)
Время предзагрузки промежутка : 480 мс.
Звёздные Врата: Атлантида
Скриншоты:




Время раздачи: с 2:00 до 8:00/7 дней в неделю
[NNM-Club.me]_Zvezdnyie vrata Atlantida Fanfik.torrent
 Торрент: Платиновая раздача  Зарегистрирован
 
Скачать


Примагнититься
 Зарегистрирован:   18 Апр 2014 10:11:35
 Размер:   70,1 MB  (
 Рейтинг:   4,8 (Голосов: 18)
 Поблагодарили:   71
 Проверка:   Оформление проверено модератором 19 Апр 2014 10:12:52
WedMoney кошелек для желающих помочь в покупке новых дисков для раздающего компьютера, а также для стимулирования и поощрения новых раздач
WedMoney R919724038424
Как cкачать  ·  Как раздать  ·  Правильно оформить  ·  Поднять ратио!  
Показать сообщения:   
Начать новую тему   Ответить на тему    Торрент-трекер NNM-Club -> Зарубежные сериалы -> Звездные врата / Stargate Часовой пояс: GMT + 3
Страница 1 из 1