Классический форум-трекер
canvas not supported
Нас вместе: 4 072 978
Loading...

Реймонд Хеттинджер | Инструментарий для работы с классами в Python [PyCon US] (2013) [HDTV]


 
 
RSS
Начать новую тему   Ответить на тему    Торрент-трекер NNM-Club -> Обучающие видеоматериалы -> Компьютеры
Автор Сообщение
idlesign ®
Стаж: 5 лет
Сообщений: 19
Ratio: 16,998
Поблагодарили: 965
65.38%
russia.gif
Реймонд Хеттинджер | Инструментарий для работы с классами в Python [PyCon US] (2013) [HDTV]
Автор: Raymond Hettinger
Жанр: Программирование
Продолжительность: 00:45:55
Качество видео: HDTV
Видеокодек: DivX
Битрейт видео: ~1331 kb/s, 29.970 FPS
Размер кадра: 720x480
Аудиокодек: MP3
Битрейт аудио: 128 kb/s (CBR), 2 ch, 44100 Hz

Описание:
PyCon US — ежегодная конференция python-разработчиков, проходящая в Соединённых Штатах Америки.
В 2013 году на конференции было представлено более сотни докладов.

Один из ключевых разработчиков языка, евангелист и консультант Реймонд Хеттинджер, расскажет о том, какой инструментарий доступен в Python для работы с классами.
Занятие пройдет в режиме «задача — решение». Мы проследим эволюцию одного класса, поднимем свой стартап, узнаем как правильно использовать различные приёмы программирования, и улыбнёмся.
General
Complete name : /home/shared/idle/py/PyCon2013-Class_Development_Toolkit-Hettinger.avi
Format : AVI
Format/Info : Audio Video Interleave
File size : 483 MiB
Duration : 45mn 55s
Overall bit rate : 1 471 Kbps
Writing library : VirtualDub build 32842/release

Video
ID : 0
Format : MPEG-4 Visual
Codec ID : DIV3
Codec ID/Hint : DivX 3 Low
Duration : 45mn 55s
Bit rate : 1 331 Kbps
Width : 720 pixels
Height : 480 pixels
Display aspect ratio : 3:2
Frame rate : 29.970 fps
Standard : NTSC
Color space : YUV
Chroma subsampling : 4:2:0
Bit depth : 8 bits
Compression mode : Lossy
Bits/(Pixel*Frame) : 0.129
Stream size : 437 MiB (91%)

Audio
ID : 1
Format : MPEG Audio
Format version : Version 1
Format profile : Layer 3
Mode : Joint stereo
Mode extension : MS Stereo
Codec ID : 55
Codec ID/Hint : MP3
Duration : 45mn 55s
Bit rate mode : Constant
Bit rate : 128 Kbps
Channel(s) : 2 channels
Sampling rate : 44.1 KHz
Compression mode : Lossy
Stream size : 42.0 MiB (9%)
Alignment : Split accross interleaves
Interleave, duration : 33 ms (1.00 video frame)
Interleave, preload duration : 500 ms
Скриншоты:


Время раздачи: 24/7 (круглосуточно)
[NNM-Club.me]_PyCon2013-Class_Development_Toolkit-Hettinger.avi.torrent
 Торрент: Платиновая раздача  Зарегистрирован
 
Скачать


Примагнититься
 Зарегистрирован:   15 Май 2014 21:09:59
 Размер:   483 MB  (
 Рейтинг:   4,6 (Голосов: 24)
 Поблагодарили:   75
 Проверка:   Оформление проверено модератором 17 Май 2014 07:10:57
Как cкачать  ·  Как раздать  ·  Правильно оформить  ·  Поднять ратио!  
Показать сообщения:   
Начать новую тему   Ответить на тему    Торрент-трекер NNM-Club -> Обучающие видеоматериалы -> Компьютеры Часовой пояс: GMT + 3
Страница 1 из 1