Классический форум-трекер
canvas not supported
Нас вместе: 4 143 604

Реймонд Хеттинджер | Основной доклад [PyCon US] (2013) [HDTV]


 
 
RSS
Начать новую тему   Ответить на тему    Торрент-трекер NNM-Club -> Обучающие видеоматериалы -> Компьютеры, обуч.видео
Автор Сообщение
idlesign ®
Стаж: 6 лет 8 мес.
Сообщений: 19
Ratio: 16.998
Поблагодарили: 1009
65.38%
russia.gif
Реймонд Хеттинджер | Основной доклад [PyCon US] (2013) [HDTV]
Автор: Raymond Hettinger
Жанр: Программирование
Продолжительность: 00:42:56
Качество видео: HDTV
Видеокодек: DivX
Битрейт видео: ~1517 kb/s, 29.970 FPS
Размер кадра: 720x480
Аудиокодек: MP3
Битрейт аудио: 128 kb/s (CBR), 2 ch, 44100 Hz

Описание:
PyCon US — это ежегодная конференция python-разработчиков, проходящая в Соединённых Штатах Америки.
В 2013 году на конференции было представлено более сотни докладов.

Вашему вниманию предлагается вариант на русском языке одного из четырёх основных докладов.
Реймонд Хеттинджер — один из ключевых разработчиков языка, евангелист — расскажет о том, за что можно любить Python, об особенностях, выделяющих его среди других скриптовых языков.
General
Complete name : /home/shared/idle/py/PyCon2013-Keynote-Hettinger.avi
Format : AVI
Format/Info : Audio Video Interleave
File size : 509 MiB
Duration : 42mn 56s
Overall bit rate : 1 656 Kbps
Writing library : VirtualDub build 32706/release

Video
ID : 0
Format : MPEG-4 Visual
Codec ID : DIV3
Codec ID/Hint : DivX 3 Low
Duration : 42mn 56s
Bit rate : 1 517 Kbps
Width : 720 pixels
Height : 480 pixels
Display aspect ratio : 3:2
Frame rate : 29.970 fps
Standard : NTSC
Color space : YUV
Chroma subsampling : 4:2:0
Bit depth : 8 bits
Compression mode : Lossy
Bits/(Pixel*Frame) : 0.146
Stream size : 466 MiB (92%)

Audio
ID : 1
Format : MPEG Audio
Format version : Version 1
Format profile : Layer 3
Codec ID : 55
Codec ID/Hint : MP3
Duration : 42mn 56s
Bit rate mode : Constant
Bit rate : 128 Kbps
Channel(s) : 2 channels
Sampling rate : 44.1 KHz
Compression mode : Lossy
Stream size : 39.3 MiB (8%)
Alignment : Split accross interleaves
Interleave, duration : 33 ms (1.00 video frame)
Interleave, preload duration : 500 ms
Скриншоты:


Время раздачи: 24/7 (круглосуточно)
[NNM-Club.me]_PyCon2013-Keynote-Hettinger.avi.torrent
 Торрент: Платиновая раздача  Зарегистрирован
 
Скачать


Примагнититься
 Зарегистрирован:   15 Май 2014 21:18:30
 Размер:   509 MB  (
 Рейтинг:   4.4 (Голосов: 17)
 Поблагодарили:   45
 Проверка:   Оформление проверено модератором 17 Май 2014 06:40:03
Как cкачать  ·  Как раздать  ·  Правильно оформить  ·  Поднять ратио!  
Показать сообщения:   
Начать новую тему   Ответить на тему    Торрент-трекер NNM-Club -> Обучающие видеоматериалы -> Компьютеры, обуч.видео Часовой пояс: GMT + 3
Страница 1 из 1