Классический форум-трекер
canvas not supported
Нас вместе: 4 076 834

Пат и Мат / Pat & Mat (1976 - 2004) DVDRip (77 серий из 87)


 
 
RSS
Начать новую тему   Ответить на тему    Торрент-трекер NNM-Club -> Мультфильмы -> Зарубежные Мультфильмы для детей
Автор Сообщение
starklad ®
RG Всё лучшее - детям!
Реставратор Детского, Uploader 100+
 
Стаж: 7 лет 8 мес.
Сообщений: 7917
Ratio: 12K
Поблагодарили: 198403
100%
Откуда: родом из СССР
ussr.gif
Пат и Мат / Pat & Mat (1976 - 2004) DVDRip (77 серий из 87)
Год выпуска: 1976 - 2004
Жанр: Кукольный
Производство: Чехословакия, Чешская Республика

Перевод: Немой, перевод не требуется

Режиссер: Любомир Бенес, Марек Бенес
Персонажи: Два соседа Пат и Мат

Описание фильма:
Поломалось — починим, отвалилось — прикрутим, оторвалось — пришьем. Чем невероятнее задача — тем быстрее друзья принимаются за дело!
Пат и Мат — не только приятели и соседи, вот уже долгие годы их объединяет неуемная страсть делать все своими руками. И пусть иногда кажется,
что они безнадежно неуклюжи и бестолковы, что результат никогда не соответствует первоначальному плану — пусть вас это не тревожит.
Ведь главное — Пату и Мату никогда не бывает скучно! Перед нами уникальный пример жизнелюбия и оптимизма!
Каким бы ни был конечный результат невероятной деятельности наших героев — они всегда ему рады



Релиз от

Продолжительность: 77 х ~ 00:08:00
Качество видео: DVDRip

Серии: 01 - 46, 48, 49
Видео: XviD, 704x544 (1.294), 25.000 fps, 1 922 Kbps (0.201 bit/pixel)
Аудио: AC-3, 48.0 KHz, 2 ch, 192 Kbps, CBR

Серии: 47, 51 - 78
Видео: XviD, 704x536 (4:3), 25.000 fps, 1 886 Kbps (0.200 bit/pixel)
Аудио: AC-3, 48.0 KHz, 2 ch, 192 Kbps, CBR
Очередность серий из Википедии
01.Соседи-Kuťáci(1976)
02.Обои-Tapety(1979)
03.Семинар-Díelna(1979)
04.Ковер-Koberec(1979)
05.Кресло-качалка-Hojdacíe křeslo(1979)
06.Изображение-Obraz(1979)
07.Гараж-Garáž(1979)
08.Свет-Světlo(1979)
09.Граммофон-Gramofón(1981)
10.Гриль-Grill(1981)
11.Удаление-Stahováníe(1982)
12.Вода-Voda(1982)
13.Сад-Záhradka(1982)
14.Живописная работа-Malovaníe(1982)
15.Кроссворды-Křížovka(1982)
16.Перемычки антенны-Skokani(1982)
17.Скворечник-Búdka(1983)
18.Большая стирка-Velké Pranie(1983)
19.Завтрак на траве-Ranajky V Tráve(1983)
20.Стиральная машина-Práčka(1983)
21.Дождь-Dážď(1983)
22.Тренажерный зал-Tělocvična(1983)
23.Экскурсия-Výlet(1984)
24.Виноделы-Vinári(1984)
25.Коньки-Korčule(1984)
26.Фортепиано-Klavír(1984)
27.Гончарная-Hrnčiari(1985)
28.Дефект-Porucha(1985)
29.Яблоко-Jablko(1985)
30.Ключ-Klíč(1989)
31.Мебель-Nábytek(1989)
32.Газонокосилка-Sekačka(1990)
33.Генеральная уборка-Generální Úklid(1990)
34.Дверь-Dveře(1990)
35.Крыша-Střecha(1990)
36.Бисквиты-Sušenky(1992)
37.Ворота-Vrata(1992)
38.Велосипед-Cyklisti(1992)
39.Булыжники-Dlaždice(1992)
40.Паркет-Parkety(1992)
41.Водосточная труба-Okap(1992)
42.Кабриолет-Kabriolet(1992)
43.Авария-Nehoda(1994)
44.Бильярд-Kulečník(1994)
45.Живая изгородь-Živý plot(1994)
46.Сейф-Trezor(1994)
47.Крыло-Blatník(1994)
48.Модель-Modeláři(1994)
49.Виндсерфинг-Windsurfing(1994)
51.Пазлы-Puzzle(2002)
52.Барбекю-Opékají Špekáčky(2003)
53.Ремонт крыши-Opravují Střechu(2003)
54.Черный ящик-Černá Bedýnka(2003)
55.Колеса-Kolečka(2003)
56.Собачья будка-Psí Bouda(2003)
57.Полотеры-Natírají Podlahu(2003)
58.Теплица-Skleník(2003)
59.Качели-Houpačka(2003)
60.Незваный гость-Nezvaný Návštěvník(2003)
61.Телохранители-Bodygárdi(2003)
62.Покраска окон-Natírají Okna(2003)
63.Пасхальное яйцо-Velikonoční Vajíčko(2003)
64.Рисунок-Štíhlá Linie(2003)
65.Автомат-Automat(2003)
66.Автодром-Autodráha(2003)
67.Аквариум-Akvárium(2003)
68.Тыква-Zavařují(2003)
69.Дельтаплан-Rogalo(2003)
70.Рождественский пирог-Vánočka(2003)
71.Болезнь-Stůňou(2003)
72.Факс-Fax(2003)
73.Ягоды-Jahody(2003)
74.Игра в гольф-Hrají Golf(2004)
75.Злосчастная крышечка-Někam To Zapadlo(2004)
76.Строительство бассейна-Kopají Bazén(2004)
77.Как повесить картину-Věší Krajinu(2004)
78.Рождественская елка-Vánoční Stromeček(2004)
Complete name \Pat & Mat\01.Соседи-Kuťáci(1976).avi
Format : AVI
Format/Info : Audio Video Interleave
File size : 104 MiB
Duration : 6mn 52s
Overall bit rate : 2 123 Kbps
Writing application : VirtualDubMod 1.5.10.3 | (build 2550/release)
Writing library : VirtualDubMod build 2550/release

Video
ID : 0
Format : MPEG-4 Visual
Format profile : Advanced Simple@L5
Format settings, BVOP : 2
Format settings, QPel : No
Format settings, GMC : No warppoints
Format settings, Matrix : Default (H.263)
Codec ID : XVID
Codec ID/Hint : XviD
Duration : 6mn 52s
Bit rate : 1 922 Kbps
Width : 704 pixels
Height : 544 pixels
Display aspect ratio : 1.294
Frame rate : 25.000 fps
Color space : YUV
Chroma subsampling : 4:2:0
Bit depth : 8 bits
Scan type : Progressive
Compression mode : Lossy
Bits/(Pixel*Frame) : 0.201
Stream size : 94.4 MiB (90%)
Writing library : XviD 1.2.1 (UTC 2008-12-04)

Audio
ID : 1
Format : AC-3
Format/Info : Audio Coding 3
Mode extension : CM (complete main)
Format settings, Endianness : Big
Codec ID : 2000
Duration : 6mn 52s
Bit rate mode : Constant
Bit rate : 192 Kbps
Channel(s) : 2 channels
Channel positions : Front: L R
Sampling rate : 48.0 KHz
Bit depth : 16 bits
Compression mode : Lossy
Stream size : 9.43 MiB (9%)
Alignment : Split accross interleaves
Interleave, duration : 40 ms (1.00 video frame)
Interleave, preload duration : 500 ms
Complete name \Pat & Mat\51.Пазлы-Puzzle(2002).avi
Format : AVI
Format/Info : Audio Video Interleave
File size : 122 MiB
Duration : 8mn 10s
Overall bit rate : 2 088 Kbps
Writing application : VirtualDubMod 1.5.10.3 | (build 2550/release)
Writing library : VirtualDubMod build 2550/release

Video
ID : 0
Format : MPEG-4 Visual
Format profile : Advanced Simple@L5
Format settings, BVOP : 2
Format settings, QPel : No
Format settings, GMC : No warppoints
Format settings, Matrix : Default (H.263)
Codec ID : XVID
Codec ID/Hint : XviD
Duration : 8mn 10s
Bit rate : 1 886 Kbps
Width : 704 pixels
Height : 536 pixels
Display aspect ratio : 4:3
Frame rate : 25.000 fps
Color space : YUV
Chroma subsampling : 4:2:0
Bit depth : 8 bits
Scan type : Progressive
Compression mode : Lossy
Bits/(Pixel*Frame) : 0.200
Stream size : 110 MiB (90%)
Writing library : XviD 1.2.1 (UTC 2008-12-04)

Audio
ID : 1
Format : AC-3
Format/Info : Audio Coding 3
Mode extension : CM (complete main)
Format settings, Endianness : Big
Codec ID : 2000
Duration : 8mn 10s
Bit rate mode : Constant
Bit rate : 192 Kbps
Channel(s) : 2 channels
Channel positions : Front: L R
Sampling rate : 48.0 KHz
Bit depth : 16 bits
Compression mode : Lossy
Stream size : 11.2 MiB (9%)
Alignment : Split accross interleaves
Interleave, duration : 40 ms (1.00 video frame)
Interleave, preload duration : 500 ms
Скриншоты:



Все релизы Пат и Мат / Pat & Mat на NNM
Смотрите также другие мои раздачи
Время раздачи: С 08:00 до 23:00, до первых 10-ти скачавших, далее по возможности
[NNM-Club.me]_Pat & Mat.torrent
 Торрент: Платиновая раздача  Зарегистрирован
 
Скачать


Примагнититься
 Зарегистрирован:   06 Сен 2014 16:22:34
 Размер:   8,84 GB  (
 Рейтинг:   4,8 (Голосов: 30)
 Поблагодарили:   120
 Проверка:   Оформление проверено модератором 06 Сен 2014 16:37:13
Как cкачать  ·  Как раздать  ·  Правильно оформить  ·  Поднять ратио!  
starklad ®
RG Всё лучшее - детям!
Реставратор Детского, Uploader 100+
 
Стаж: 7 лет 8 мес.
Сообщений: 7917
Ratio: 12K
Поблагодарили: 198403
100%
Откуда: родом из СССР
ussr.gif
Скриншоты сравнения с раздачей на другом трекере http://screenshotcomparison.com/comparison/90566/picture:0
nnmclubru
Стаж: 9 лет 9 мес.
Сообщений: 213
Ratio: 1,509
100%
russia.gif
Название измените - "Из 78"
starklad ®
RG Всё лучшее - детям!
Реставратор Детского, Uploader 100+
 
Стаж: 7 лет 8 мес.
Сообщений: 7917
Ratio: 12K
Поблагодарили: 198403
100%
Откуда: родом из СССР
ussr.gif
nnmclubru писал(а): Перейти к сообщению
Название измените - "Из 78"

Согласно Википедии - серий все же 87 - в сети есть даже вебки, но не очень хорошего качества
Показать сообщения:   
Начать новую тему   Ответить на тему    Торрент-трекер NNM-Club -> Мультфильмы -> Зарубежные Мультфильмы для детей Часовой пояс: GMT + 3
Страница 1 из 1