Классический форум-трекер
canvas not supported
Нас вместе: 4 142 812

Михаил Дашкиев, Пётр Осипов | Бизнес трениг "Бизнес Молодость" (2011-2012) WEBRip [H.264]


 
 
RSS
Начать новую тему   Эта тема закрыта, вы не можете писать ответы и редактировать сообщения.    Торрент-трекер NNM-Club -> Обучающие видеоматериалы -> Бизнес, обуч.видео
Автор Сообщение
piser ®
Стаж: 10 лет 7 мес.
Сообщений: 7
Ratio: 13.255
Поблагодарили: 167
100%
Откуда: Moscow
russia.gif
Михаил Дашкиев, Пётр Осипов | Бизнес трениг "Бизнес Молодость" (2011-2012) WEBRip [H.264]
Автор (режиссер): Михаил Дашкиев, Пётр Осипов
Жанр: Бизнес
Продолжительность: 4:01:30:28
Качество видео: DVDRip
Видеокодек: H.264
Битрейт видео: ~600 Кбит/сек, 25,000 кадров/сек
Размер кадра: 1024 x 576
Аудиокодек: AAC
Битрейт аудио: 318 Кбит/сек, 2 Ch, 44,1 КГц

Описание:
Сегодня не нашлось еще человека на земле, который смог одним словом верно объяснить, что такое «Бизнес-молодость». «Бизнес-молодость» – это уникальный социально-экономический феномен. Целая вселенная, отдельный мир со своими традициями и порядками. Попробуем все-таки рассказать. 30 тренингов в общей продолжительности около 100 часов!
Скриншоты:
Общее
Полное имя : /Volumes/Lacie/Обучение/БМ/Интенсив [БМ].День первый. Инициация/День1_часть1_cut интенсив.mp4
Формат : MPEG-4
Профиль формата : Base Media
Идентификатор кодека : isom
Размер файла : 132 Мбайт
Продолжительность : 20 м.
Режим общего битрейта : Постоянный
Общий поток : 918 Кбит/сек
Программа кодирования : Lavf54.29.105

Видео
Идентификатор : 1
Формат : AVC
Формат/Информация : Advanced Video Codec
Профиль формата : High@L3.1
Параметр CABAC формата : Да
Параметр ReFrames формата : 3 кадра
Параметр GOP формата : M=3, N=25
Идентификатор кодека : avc1
Идентификатор кодека/Информация : Advanced Video Coding
Продолжительность : 20 м.
Вид битрейта : Постоянный
Битрейт : 600 Кбит/сек
Ширина : 1024 пикселя
Высота : 576 пикселей
Соотношение сторон : 16:9
Режим частоты кадров : Постоянный
Частота кадров : 25,000 кадров/сек
Стандарт вещания : PAL
Цветовое пространство : YUV
Субдискретизация насыщенности : 4:2:0
Битовая глубина : 8 бит
Тип развёртки : Прогрессивная
Бит/(Пиксели*Кадры) : 0.041
Размер потока : 85,5 Мбайт (65%)
Язык : English
Основные цвета : BT.709
Характеристики трансфера : BT.709
Коэффициенты матрицы : BT.709

Аудио
Идентификатор : 2
Формат : AAC
Формат/Информация : Advanced Audio Codec
Профиль формата : LC
Идентификатор кодека : 40
Продолжительность : 20 м.
Вид битрейта : Постоянный
Битрейт : 318 Кбит/сек
Каналы : 2 канала
Расположение каналов : Front: L R
Частота : 44,1 КГц
Метод сжатия : С потерями
Размер потока : 45,7 Мбайт (35%)
Язык : English
Время раздачи: 24/7
[NNM-Club.me]_BM.torrent
 Торрент: Платиновая раздача  Зарегистрирован
 
Скачать


Примагнититься
 Зарегистрирован:   17 Сен 2014 01:46:36
 Размер:   43.1 GB  (
 Рейтинг:   4.6 (Голосов: 57)
 Поблагодарили:   167
 Проверка:   Оформление проверено модератором 18 Сен 2014 00:53:30
Как cкачать  ·  Как раздать  ·  Правильно оформить  ·  Поднять ратио!  
tubuus
Стаж: 10 лет 5 мес.
Сообщений: 4
Ratio: 0.916
1.45%
Это неактуальные тренинги уже давно. Хотя бы 2013-ый год нужен.
 !  Примечание от Robert Ingil:
5.7
«Актуальность» — не главный критерий при создании раздачи. Прибытие поезда / L'arrivee d'un train a La Ciotat (1896) DVDRip вы тоже предлагаете не раздавать?

С сентября 2014-ого уже совсем другая программа и подход.
 !  Примечание от Robert Ingil:

Раз вы знаете — наверное, у вас есть. Почему не выкладываете в Клубе?
Igor.Shel
Стаж: 10 лет 9 мес.
Сообщений: 8
Ratio: 1.539
100%
ukraine.gif
Они постоянно обновляют информационную подачу, мир не стоит на месте
netcasper
Стаж: 9 лет 4 мес.
Сообщений: 175
Ratio: 6.196
1.08%
да как бы управление компанией можно бы послушать от солидных менеджеров, которые реально управляли компаниями. Но им как всегда некогда мастерклассы вести, они деньги делают на управлении.
Лучше уж курс МВА посмотреть, он под собой хоть реальную основу имеет.
Хотя лично мне что бы моими 5 челами управлять, вряд ли что вообще поможет:))
Они и так работают:)
MadDAg
Стаж: 10 лет 8 мес.
Сообщений: 48
Ratio: 7.437
9.16%
да нельзя их слушать, послушайте либо довганя либо вирютина.
burnistov
Стаж: 6 лет 7 мес.
Сообщений: 109
Ratio: 0.722
100%
usa.gif
MadDAg писал(а): Перейти к сообщению
да нельзя их слушать, послушайте либо довганя либо вирютина.

Почему, смотри чего они добились и сколько им лет, надо их слушать! А довгань и вирютин только на людях делают деньги сами при этом никак не зарабатывают, только доят коров на бабки!
Показать сообщения:   
Начать новую тему   Эта тема закрыта, вы не можете писать ответы и редактировать сообщения.    Торрент-трекер NNM-Club -> Обучающие видеоматериалы -> Бизнес, обуч.видео Часовой пояс: GMT + 3
Страница 1 из 1