Классический форум-трекер
canvas not supported
Нас вместе: 4 076 384

Полина Скай | Основы рисования для детей. Обучающий видеокурс [2013] PCRec


 
 
RSS
Начать новую тему   Ответить на тему    Торрент-трекер NNM-Club -> Литература и прочие Обучающие материалы -> Мультимедийные материалы для родителей
Автор Сообщение
FedExe ®
Uploader 300+
Стаж: 9 лет 2 мес.
Сообщений: 9667
Ratio: 379,203
Поблагодарили: 925504
100%
Откуда: LoX - living off experien
Полина Скай | Основы рисования для детей. Обучающий видеокурс [2013] PCRec
Автор (режиссер): Полина Скай
Название: Основы рисования для детей. Обучающий видеокурс
Год выпуска: 2013
Жанр: Обучающий для детей
Продолжительность: 00:16:40
Качество видео: PCRec
Видеокодек: MPEG4
Битрейт видео: ~2 985 Kbps
Размер кадра: 1448x1080
Аудиокодек: AC3 2.0
Битрейт аудио: 152 Kbps

Описание:
Данный видекурс состоит из 5 видеоуроков + учебное пособие по основам рисования для детей. Из этого мини-курса ваш ребенок научится основам поэтапного рисования, узнает как изображаются различные эмоции и все это в виде интересных и поучительных рассказов о жизни кота Мурра.

Полина Скай | Основы рисования для детей [2013] [PDF]
1. 5 подробных видео-уроков по поэтапному рисованию, а так же учебное пособие со схемами для самостоятельного изучения
2. В течении каждого урока ваш ребенок создаст готовую иллюстрацию к сказочной истории про жизнь кота Мурра
3. Вы сможете отдыхать, пока ребенок будет увлеченно смотреть видео и рисовать свой неповторимый шедевр
General
Complete name : lesson1-hd.mp4
Format : MPEG-4
Format profile : Base Media
Codec ID : isom
File size : 70.4 MiB
Duration : 3mn 8s
Overall bit rate : 3 142 Kbps
Writing application : Lavf52.93.0

Video
ID : 1
Format : MPEG-4 Visual
Format profile : Simple@L1
Format settings, BVOP : No
Format settings, QPel : No
Format settings, GMC : No warppoints
Format settings, Matrix : Default (H.263)
Codec ID : 20
Duration : 3mn 8s
Bit rate mode : Variable
Bit rate : 2 985 Kbps
Width : 1 448 pixels
Height : 1 080 pixels
Display aspect ratio : 4:3
Frame rate mode : Constant
Frame rate : 30.000 fps
Color space : YUV
Chroma subsampling : 4:2:0
Bit depth : 8 bits
Scan type : Progressive
Compression mode : Lossy
Bits/(Pixel*Frame) : 0.064
Stream size : 66.9 MiB (95%)
Writing library : Lavc52.108.0

Audio
ID : 2
Format : AAC
Format/Info : Advanced Audio Codec
Format profile : LC
Codec ID : 40
Duration : 3mn 7s
Bit rate mode : Variable
Bit rate : 152 Kbps
Channel(s) : 2 channels
Channel positions : Front: L R
Sampling rate : 44.1 KHz
Compression mode : Lossy
Stream size : 3.41 MiB (5%)
Скриншоты:


Время раздачи: 24/7 (круглосуточно) - до 5 скачавших, далее по возможности.
[NNM-Club.me]_Polina Skay Osnovyi risovaniya dlya detey. Obuchayushchiy videokurs [2013] PCRec.torrent
 Торрент: Платиновая раздача  Зарегистрирован
 
Скачать


Примагнититься
 Зарегистрирован:   04 Авг 2013 22:32:08
 Размер:   397 MB  (
 Рейтинг:   4,8 (Голосов: 59)
 Поблагодарили:   241
 Проверка:   Оформление проверено модератором 05 Авг 2013 15:17:59
Как cкачать  ·  Как раздать  ·  Правильно оформить  ·  Поднять ратио!  

_________________

Ну и конечно, данный материал выложен исключительно для ознакомления. После просмотра Вы обязаны удалить все файлы, отформатировать жесткий диск, разбить его молотком, облить кислотой и сжечь остатки в микроволновке.
alla965
Стаж: 7 лет 9 мес.
Сообщений: 30
Ratio: 14,73
100%
Огромное спасибо!
byvs
Стаж: 11 лет 5 мес.
Сообщений: 28
Ratio: 2,64
100%
russia.gif
Присоединяюсь
Показать сообщения:   
Начать новую тему   Ответить на тему    Торрент-трекер NNM-Club -> Литература и прочие Обучающие материалы -> Мультимедийные материалы для родителей Часовой пояс: GMT + 3
Страница 1 из 1