Классический форум-трекер
canvas not supported
Нас вместе: 4 103 576

Discovery: Самогонщики / Moonshine (2014) SATRip (Сезон 3)


 
 
RSS
Начать новую тему   Ответить на тему    Торрент-трекер NNM-Club -> Зарубежные TV-бренды -> Discovery
Автор Сообщение
Priboi2009 ®
Стаж: 6 лет 8 мес.
Сообщений: 9
Ratio: 76,694
Поблагодарили: 169
53.67%
ussr.gif
Discovery: Самогонщики / Moonshine (2014) SATRip (Сезон 3)
Режиссер / Телекомпания: Discovery Communication
Год выпуска: 2014
Жанр: Документальный, Телепередача

Описание:
Программа «Самогонщики» рассказывает о преступниках, продолжающих сомнительную традицию, зачастую в лесу неподалеку от дома с использованием замаскированного оборудования, и о местных властях, которые пытаются наставить их на путь истинный. Загляните «на кухню» этого нелегального бизнеса, которую практически никогда не увидишь по телевизору, включая посвящение в самогонщики – зажигание винокурни в первый раз. Вода, сахар, зерно и дрожжи – вот основные ингредиенты настоящего самогона. Сезон самогоноварения продолжается с июня по октябрь, и это не случайно, ведь именно на этот период приходится сбор урожая зерновых, а обильная лесная листва помогает скрыть незаконную деятельность. Для самых усердных производителей три летних месяца могут принести немалые деньги. Те, кому улыбнулась удача – настоящие счастливчики, но каждый неверный шаг может стоить тюремного заключения!

Продолжительность: 13 серий по 00:45:00

Перевод: Одноголосый закадровый, профессиональный

Качество видео: SATRip
Видеокодек: Xvid
Битрейт видео: ~1520 kb/s
Размер кадра: 720 х 400
Аудиокодек: MP3, 2ch.
Битрейт аудио: 128 kb/s

Весь цикл передач
Общее
Полное имя : D:\Мои фаилы\Моя торрент раздача\nnm-club\Самогонщики 3 сезон\Самогонщики- 3 сезон 1 серия Пора гнать.avi
Формат : AVI
Формат/Информация : Audio Video Interleave
Размер файла : 518 Мбайт
Продолжительность : 43 м.
Режим общего битрейта : Переменный
Общий поток : 1656 Кбит/сек
Программа кодирования : VirtualDubMod 1.5.10.3 | www.virtualdub-fr.org || (build 2550/release)
Библиотека кодирования : VirtualDubMod build 2550/release

Видео
Идентификатор : 0
Формат : MPEG-4 Visual
Профиль формата : Advanced Simple@L5
Параметр BVOP формата : 1
Параметр QPel формата : Нет
Параметр GMC формата : Без точки перехода
Параметр матрицы формата : Default (MPEG)
Идентификатор кодека : XVID
Идентификатор кодека/Подсказка : XviD
Продолжительность : 43 м.
Битрейт : 1520 Кбит/сек
Ширина : 720 пикселей
Высота : 400 пикселей
Соотношение сторон : 16:9
Частота кадров : 25,000 кадров/сек
Цветовое пространство : YUV
Субдискретизация насыщенности : 4:2:0
Битовая глубина : 8 бит
Тип развёртки : Прогрессивная
Метод сжатия : С потерями
Бит/(Пиксели*Кадры) : 0.211
Размер потока : 476 Мбайт (92%)
Библиотека кодирования : XviD 1.2.1 (UTC 2008-12-04)

Аудио
Идентификатор : 1
Формат : MPEG Audio
Версия формата : Version 1
Профиль формата : Layer 3
Режим : Joint stereo
Расширение режима : MS Stereo
Идентификатор кодека : 55
Идентификатор кодека/Подсказка : MP3
Продолжительность : 43 м.
Вид битрейта : Переменный
Битрейт : 128 Кбит/сек
Каналы : 2 канала
Частота : 48,0 КГц
Метод сжатия : С потерями
Размер потока : 38,7 Мбайт (7%)
Выравнивание : Соединение по промежуткам
Продолжительность промежутка : 24 мс. (0,60 видеокадр)
Время предзагрузки промежутка : 149 мс.
Библиотека кодирования : LAME3.99
Настройки программы : -m j -V 4 -q 2 -lowpass 17 --abr 128
Скриншоты:


Время раздачи: С 9:00 до 23:00
[NNM-Club.me]_Samogonshchiki 3 sezon.torrent
 Торрент: Платиновая раздача  Зарегистрирован
 
Скачать


Примагнититься
 Зарегистрирован:   14 Ноя 2014 23:14:43
 Размер:   6,69 GB  (
 Рейтинг:   4,7 (Голосов: 20)
 Поблагодарили:   75
 Проверка:   Оформление проверено модератором 18 Ноя 2014 16:45:38
Как cкачать  ·  Как раздать  ·  Правильно оформить  ·  Поднять ратио!  
_nic
Стаж: 9 лет 9 мес.
Сообщений: 135
Ratio: 7,766
0%
ukraine.gif
Если бы еще кто то ВООБЩЕ раздавал(((
vadyshok
Стаж: 8 лет 2 мес.
Сообщений: 11
Ratio: 1,991
100%
Смотрел первые сезоны.Не мог понять,зачем американцы хранят и перевозят самогон в стеклянных банках по 0,5л. То разбили,то гремят ими в лесу.Проще в полтарашках.
pichot
Стаж: 8 лет 2 мес.
Сообщений: 22
Ratio: 5,613
Раздал: 7,45 TB
45.55%
usa.gif
Выложите передачу Тикл. Заранее спасибо.
Priboi2009 ®
Стаж: 6 лет 8 мес.
Сообщений: 9
Ratio: 76,694
Поблагодарили: 169
53.67%
ussr.gif
pichot писал(а): Перейти к сообщению
Выложите передачу Тикл. Заранее спасибо.


Записано только 2 серии, выложу как запишу весь сезон.
alex_solovov
Стаж: 10 лет 1 мес.
Сообщений: 42
Ratio: 3,499
0.77%
russia.gif
На раздаче 24/7
Показать сообщения:   
Начать новую тему   Ответить на тему    Торрент-трекер NNM-Club -> Зарубежные TV-бренды -> Discovery Часовой пояс: GMT + 3
Страница 1 из 1