Классический форум-трекер
canvas not supported
Нас вместе: 4 065 634

Доктор Хаус / House M.D. (2005-2006) WEB-DL [H.264/1080p-LQ] (Сезон 2, серии 1-24 из 24) LostFilm, Федосов, Домашний


 
 
RSS
Начать новую тему   Ответить на тему    Торрент-трекер NNM-Club -> Зарубежные сериалы -> Доктор Хаус / House M.D.
Автор Сообщение
CEBEPu2D ®
Стаж: 8 лет 3 мес.
Сообщений: 195
Ratio: 106,317
Поблагодарили: 3419
100%
Откуда: адукто
russia.gif

Доктор Хаус / House M.D. (2004) WEB-DL [H.264/1080p-LQ] (Сезон 2, серии 1-24 из 24) LostFilm, Федосов, Домашний
Год выпуска: 2005-2006
Страна: США
Жанр: Комедия, драма
Продолжительность: ~ 00:45:00 серия
Перевод: Профессиональный (многоголосый, одноголосый закадровый) LostFilm, Федосов, Домашний
Режиссер: Дэвид Шор
Актеры: Хью Лори, Лиза Эдельштейн, Омар Эппс, Роберт Шон Леонард, Дженнифер Моррисон, Джесси Спенсер
Описание: Доктор Грегори Хауз (Хью Лори) не отличается проникновенностью в общении с больными и с удовольствием избегает их, если только есть возможность. Он сам всё время проводит в борьбе с собственной болью, а трость в его руке только подчеркивает его жесткую ядовитую манеру общения.
Порой его поведение можно назвать почти бесчеловечным, и при этом он прекрасный врач, обладаюший нетипичным умом и безупречным инстинктом, что снискало ему глубокое уважение. Будучи инфекционистом, он ещё и замечательный диагност, который любит разгадывать медицинские загадки, чтобы спасти кому-то жизнь.
Релизер : Автор Раздачи - АКТЕР aka CEBEPu2D
Работа со звуком: : doc.logan
Озвучка : LostFilm (студия «Кравец»), Федосов, Домашний


Сэмпл / Все раздачи сериала
Качество: WEB-DL (1080p)
Видеокодек: MPEG-4 AVC/H.264
Битрейт видео: ~ 5000 Кбит/с
Размер кадра: 1920x1080
Аудио #1: АС3, 6 ch, 448 Кбит/с (Русский)
Аудио #2: АС3, 2 ch, 192 Кбит/с (Русский)
Аудио #3: АС3, 2 ch, 320 Кбит/с (Русский)
Аудио #4: АС3, 6 ch, 384 Кбит/с (Английский)
Вид субтитров: Вшитые, отключаемые
Язык субтитров: Русский, английский
01. Acceptance / Признание
02. Autopsy / Аутопсия
03. Humpty Dumpty / Шалтай-Болтай
04. TB or Not TB / Туберкулёз или не туберкулёз?
05. Daddy’s Boy / Папенькин сынок
06. Spin / Крутой поворот
07. Hunting / Охота
08. The Mistake / Ошибка
09. Deception / Обман
10. Failure to Communicate / Трудности перевода
11. Need to Know / Необходимые знания
12. Distractions / Отвлекающий раздражитель
13. Skin Deep / Внешность обманчива
14. Sex Kills / Секс убивает
15. Clueless / Невежество
16. Safe / Безопасность
17. All In / Ва-банк
18. Sleeping Dogs Lie / Не будите спящую собаку
19. House vs. God / Хаус против Бога
20. Euphoria: Part 1 / Эйфория. Часть 1
21. Euphoria: Part 2 / Эйфория. Часть 2
22. Forever /
23. Who’s Your Daddy? / Кто твой папочка?
24. No Reason / Без причин
Полное имя : E:\House.M.D.S02E01.Acceptance.1080p.WEB-DL.by AKTEP.mkv
Формат : Matroska
Версия формата : Version 4 / Version 2
Размер файла : 2,00 Гбайт
Продолжительность : 43 м.
Общий поток : 6557 Кбит/сек
Дата кодирования : UTC 2014-07-19 12:57:01
Программа кодирования : mkvmerge v6.2.0 ('Promised Land') built on Apr 28 2013 12:22:01
Библиотека кодирования : libebml v1.3.0 + libmatroska v1.4.0

Видео
Идентификатор : 1
Формат : AVC
Формат/Информация : Advanced Video Codec
Профиль формата : High@L4.0
Параметр CABAC формата : Да
Параметр ReFrames формата : 4 кадра
Идентификатор кодека : V_MPEG4/ISO/AVC
Продолжительность : 43 м.
Битрейт : 5082 Кбит/сек
Ширина : 1920 пикселей
Высота : 1080 пикселей
Соотношение сторон : 16:9
Режим частоты кадров : Постоянный
Частота кадров : 23,976 кадра/сек
Цветовое пространство : YUV
Субдискретизация насыщенности : 4:2:0
Битовая глубина : 8 бит
Тип развёртки : Прогрессивная
Бит/(Пиксели*Кадры) : 0.102
Размер потока : 1,55 Гбайт (78%)
Заголовок : by AKTEP
Язык : English
Default : Да
Forced : Нет
Основные цвета : BT.709
Характеристики трансфера : BT.709
Коэффициенты матрицы : BT.709

Аудио #1
Идентификатор : 2
Формат : AC-3
Формат/Информация : Audio Coding 3
Расширение режима : CM (complete main)
Параметр Endianness формата : Big
Идентификатор кодека : A_AC3
Продолжительность : 43 м.
Вид битрейта : Постоянный
Битрейт : 448 Кбит/сек
Каналы : 6 каналов
Расположение каналов : Front: L C R, Side: L R, LFE
Частота : 48,0 КГц
Битовая глубина : 16 бит
Метод сжатия : С потерями
Размер потока : 140 Мбайт (7%)
Заголовок : AC3 5.1 448 kbps Многоголосый закадровый - студия "Кравец"
Язык : Russian
Default : Да
Forced : Нет

Аудио #2
Идентификатор : 3
Формат : AC-3
Формат/Информация : Audio Coding 3
Расширение режима : CM (complete main)
Параметр Endianness формата : Big
Идентификатор кодека : A_AC3
Продолжительность : 43 м.
Вид битрейта : Постоянный
Битрейт : 192 Кбит/сек
Каналы : 2 канала
Расположение каналов : Front: L R
Частота : 48,0 КГц
Битовая глубина : 16 бит
Метод сжатия : С потерями
Размер потока : 60,0 Мбайт (3%)
Заголовок : AC3 2.0 192 kbps Одноголосый закадровый - LostFilm (Федосов, Кравец)
Язык : Russian
Default : Нет
Forced : Нет

Аудио #3
Идентификатор : 4
Формат : AC-3
Формат/Информация : Audio Coding 3
Расширение режима : CM (complete main)
Параметр Endianness формата : Big
Идентификатор кодека : A_AC3
Продолжительность : 43 м.
Вид битрейта : Постоянный
Битрейт : 320 Кбит/сек
Каналы : 2 канала
Расположение каналов : Front: L R
Частота : 48,0 КГц
Битовая глубина : 16 бит
Метод сжатия : С потерями
Размер потока : 100 Мбайт (5%)
Заголовок : AC3 2.0 320 kbps Многоголосый закадровый - телеканал Домашний
Язык : Russian
Default : Нет
Forced : Нет

Аудио #4
Идентификатор : 5
Формат : AC-3
Формат/Информация : Audio Coding 3
Расширение режима : CM (complete main)
Параметр Endianness формата : Big
Идентификатор кодека : A_AC3
Продолжительность : 43 м.
Вид битрейта : Постоянный
Битрейт : 384 Кбит/сек
Каналы : 6 каналов
Расположение каналов : Front: L C R, Side: L R, LFE
Частота : 48,0 КГц
Битовая глубина : 16 бит
Метод сжатия : С потерями
Размер потока : 120 Мбайт (6%)
Заголовок : AC3 5.1 384 kbps
Язык : English
Default : Нет
Forced : Нет

Текст #1
Идентификатор : 6
Формат : UTF-8
Идентификатор кодека : S_TEXT/UTF8
Идентификатор кодека/Информация : UTF-8 Plain Text
Язык : Russian
Default : Нет
Forced : Нет

Текст #2
Идентификатор : 7
Формат : UTF-8
Идентификатор кодека : S_TEXT/UTF8
Идентификатор кодека/Информация : UTF-8 Plain Text
Язык : English
Default : Нет
Forced : Нет
Скриншоты:


Время раздачи: 24/7 - круглосуточно / до появления 5-10 сидов
[NNM-Club.me]_House.M.D.S02.1080p.WEB-DL.by AKTEP.torrent
 Торрент: Платиновая раздача  Зарегистрирован
 
Скачать


Примагнититься
 Зарегистрирован:   20 Июл 2014 13:47:05
 Размер:   47,7 GB  (
 Рейтинг:   4,8 (Голосов: 57)
 Поблагодарили:   151
 Проверка:   Оформление проверено модератором 20 Июл 2014 14:44:42
Как cкачать  ·  Как раздать  ·  Правильно оформить  ·  Поднять ратио!  
robad
 
Стаж: 6 лет 3 мес.
Сообщений: 10
Ratio: 7,35
3.03%
Раздайте пожалуйста
Показать сообщения:   
Начать новую тему   Ответить на тему    Торрент-трекер NNM-Club -> Зарубежные сериалы -> Доктор Хаус / House M.D. Часовой пояс: GMT + 3
Страница 1 из 1