Классический форум-трекер
canvas not supported
Нас вместе: 4 094 045

Аватар легенда о Корре / Legend of Korra Book 3 (2014) BDRip [1080p] (Сезон 3, серии 1-13 из 13) (Flux Team)


 
 
RSS
Начать новую тему   Ответить на тему    Торрент-трекер NNM-Club -> Мультфильмы -> Зарубежные Мультсериалы
Автор Сообщение
Illusivi ®
Uploader 100+
Стаж: 9 лет 2 мес.
Сообщений: 653
Ratio: 875,597
Раздал: 150,1 TB
Поблагодарили: 15109
100%
witch.png
Аватар легенда о Корре / Legend of Korra Book 3 (2014) BDRip [1080p] (Сезон 3, серии 1-13 из 13) (Flux Team)
Год выпуска: 2014
Жанр: Приключения

Язык: Русский ,Английский

Описание:
Мир вступает в новую эру! Гармоническое сближение вызвало сдвиг в энергетическом поле планеты, а Республиканский город спустя недели всё ещё не оправился после битвы Корры и УнаВаату. Весь город зарос и превратился в джунгли, которые новоприбывшие духи считают своим домом. Но не ждут ли наш город ещё какие-то перемены?

Режиссер: Майкл Данте ДиМартино, Брайан Кониецко
Персонажи: Джанет Вэрни, Дж.К. Симмонс, Ди Брэдли Бейкер, Мария Бэмфорд, Кирнан Шипка, Дарси Роуз Бернс, Лэнс Хенриксен, П.Дж. Бирн, Дэвид Фаустино, Данте Баско
Перевод: HelenZubr в редакции AndreyP
Текст читали: Natemily, Die_Otter, Tomas, Inimyo и Андрей Авдеев



Продолжительность: 00:22:00 х серия
Качество видео: BDRip
Перевод: Многоголосый закадровый (Flux Team)
Автор перевода: HelenZubr в редакции AndreyP
Текст читали: Natemily, Die_Otter, Tomas, Inimyo и Андрей Авдеев
Язык субтитров: Английские
Вид субтитров: Вшитые

Видеокодек: MPEG-4 AVC/H.264
Битрейт видео: ~12000 kb/s
Размер кадра: 1920x1080
Аудио 1: Русский DTS 5.1 48,0 КГц, 24 бит,1509 Кбит/сек
Аудио 2: Английский DTS 5.1 48,0 КГц, 24 бит,1509 Кбит/сек
Аудио 3: Английский комментарии DD 2.0 48,0 КГц, 16 бит, 224 Кбит/сек

Сэмпл: Ссылка
Код: выделить все

Общее
Уникальный идентификатор                 : 185996174369264540310561036239652192070 (0x8BED8F67B077FD00998305F3072EFF46)
Полное имя                               : Z:\Аватар легенда о Корре.S03E01.Глоток свежего воздуха.BDRip.1080p.DD5.1.H.264_Flux-Team.mkv
Формат                                   : Matroska
Версия формата                           : Version 4 / Version 2
Размер файла                             : 2,44 Гбайт
Продолжительность                        : 22 м.
Общий поток                              : 15,3 Мбит/сек
Дата кодирования                         : UTC 2014-12-17 12:47:18
Программа кодирования                    : mkvmerge v6.9.1 ('Blue Panther') 64bit built on Apr 18 2014 18:23:38
Библиотека кодирования                   : libebml v1.3.0 + libmatroska v1.4.1

Видео
Идентификатор                            : 1
Формат                                   : AVC
Формат/Информация                        : Advanced Video Codec
Профиль формата                          : High@L4.1
Параметр CABAC формата                   : Да
Параметр ReFrames формата                : 4 кадра
Идентификатор кодека                     : V_MPEG4/ISO/AVC
Продолжительность                        : 22 м.
Битрейт                                  : 12,0 Мбит/сек
Ширина                                   : 1920 пикселей
Высота                                   : 1080 пикселей
Соотношение сторон                       : 16:9
Режим частоты кадров                     : Постоянный
Частота кадров                           : 23,976 кадра/сек
Цветовое пространство                    : YUV
Субдискретизация насыщенности            : 4:2:0
Битовая глубина                          : 8 бит
Тип развёртки                            : Прогрессивная
Бит/(Пиксели*Кадры)                      : 0.241
Размер потока                            : 1,88 Гбайт (77%)
Заголовок                                : x264
Библиотека кодирования                   : x264 core 142 r2491 24e4fed
Настройки программы                      : cabac=1 / ref=4 / deblock=1:0:0 / analyse=0x3:0x113 / me=umh / subme=11 / psy=1 / psy_rd=1.00:0.00 / mixed_ref=1 / me_range=48 / chroma_me=1 / trellis=2 / 8x8dct=1 / cqm=0 / deadzone=21,11 / fast_pskip=0 / chroma_qp_offset=-2 / threads=6 / lookahead_threads=1 / sliced_threads=0 / nr=0 / decimate=0 / interlaced=0 / bluray_compat=0 / constrained_intra=0 / bframes=12 / b_pyramid=2 / b_adapt=2 / b_bias=0 / direct=3 / weightb=1 / open_gop=0 / weightp=2 / keyint=240 / keyint_min=23 / scenecut=40 / intra_refresh=0 / rc_lookahead=40 / rc=2pass / mbtree=0 / bitrate=12000 / ratetol=1.0 / qcomp=0.60 / qpmin=0 / qpmax=69 / qpstep=4 / cplxblur=20.0 / qblur=0.5 / vbv_maxrate=38000 / vbv_bufsize=30000 / nal_hrd=none / filler=0 / ip_ratio=1.40 / pb_ratio=1.30 / aq=1:1.20
Язык                                     : English
Default                                  : Да
Forced                                   : Нет

Аудио #1
Идентификатор                            : 2
Формат                                   : DTS
Формат/Информация                        : Digital Theater Systems
Режим                                    : 16
Параметр Endianness формата              : Big
Идентификатор кодека                     : A_DTS
Продолжительность                        : 22 м.
Вид битрейта                             : Постоянный
Битрейт                                  : 1509 Кбит/сек
Каналы                                   : 6 каналов
Расположение каналов                     : Front: L C R, Side: L R, LFE
Частота                                  : 48,0 КГц
Битовая глубина                          : 24 бит
Метод сжатия                             : С потерями
Размер потока                            : 247 Мбайт (10%)
Заголовок                                : Flux-Team DTS5.1 1509kb/s
Язык                                     : Russian
Default                                  : Да
Forced                                   : Нет

Аудио #2
Идентификатор                            : 3
Формат                                   : DTS
Формат/Информация                        : Digital Theater Systems
Режим                                    : 16
Параметр Endianness формата              : Big
Идентификатор кодека                     : A_DTS
Продолжительность                        : 22 м.
Вид битрейта                             : Постоянный
Битрейт                                  : 1509 Кбит/сек
Каналы                                   : 6 каналов
Расположение каналов                     : Front: L C R, Side: L R, LFE
Частота                                  : 48,0 КГц
Битовая глубина                          : 24 бит
Метод сжатия                             : С потерями
Размер потока                            : 247 Мбайт (10%)
Заголовок                                : DTS 5.1
Язык                                     : English
Default                                  : Нет
Forced                                   : Нет

Аудио #3
Идентификатор                            : 4
Формат                                   : AC-3
Формат/Информация                        : Audio Coding 3
Расширение режима                        : CM (complete main)
Параметр Endianness формата              : Big
Идентификатор кодека                     : A_AC3
Продолжительность                        : 22 м.
Вид битрейта                             : Постоянный
Битрейт                                  : 224 Кбит/сек
Каналы                                   : 2 канала
Расположение каналов                     : Front: L R
Частота                                  : 48,0 КГц
Битовая глубина                          : 16 бит
Метод сжатия                             : С потерями
Размер потока                            : 36,7 Мбайт (1%)
Заголовок                                : Commentary
Язык                                     : English
Default                                  : Нет
Forced                                   : Нет

Текст
Идентификатор                            : 5
Формат                                   : PGS
Режим смешивания                         : zlib
Идентификатор кодека                     : S_HDMV/PGS
Идентификатор кодека/Информация          : The same subtitle format used on BDs/HD-DVDs
Заголовок                                : English
Язык                                     : English
Default                                  : Нет
Forced                                   : Нет

Меню
00:00:00.000                             : en:Chapter 01
00:06:30.765                             : en:Chapter 02
00:14:59.565                             : en:Chapter 03
00:22:24.260                             : en:Chapter 04
1 Глоток свежего воздуха
2 Возрождение нации
3 Королева Земли
4 В беде
5 Клан металла
6 Старые раны
7 Истинный Маг Воздуха
8 Ужас внутри
9 Надзор
10 Да здравствует Королева
11 Ультиматум
12 Вступи в пустоту
13 Яд Красного лотоса
Огромная благодарность Группе Flux-Team за озвучку сериала.Также персонально natbuffy
Скриншоты:



Легенда о Корре на трекере NNM-Club

Всем приятного просмотра


Время раздачи: 24x7 до5 скачавших
[NNM-Club.me]_Avatar legenda o Korre.S03.Peremenyi.BDRip.1080p.DD5.1.H.264_Flux-Team.torrent
 Торрент: Платиновая раздача  Зарегистрирован
 
Скачать


Примагнититься
 Зарегистрирован:   22 Дек 2014 21:25:12
 Размер:   31,5 GB  (
 Рейтинг:   4,9 (Голосов: 56)
 Поблагодарили:   186
 Проверка:   Оформление проверено модератором 25 Дек 2014 09:40:37
Как cкачать  ·  Как раздать  ·  Правильно оформить  ·  Поднять ратио!  
LSedrik
Стаж: 9 лет 9 мес.
Сообщений: 16
Ratio: 3,792
0.48%
russia.gif
а второй сезон будет в таком же качестве ?
КилоVat
Стаж: 9 лет 4 мес.
Сообщений: 14
Ratio: 0,737
77.78%
russia.gif
Скорости пожалуйста
Показать сообщения:   
Начать новую тему   Ответить на тему    Торрент-трекер NNM-Club -> Мультфильмы -> Зарубежные Мультсериалы Часовой пояс: GMT + 3
Страница 1 из 1