Классический форум-трекер
canvas not supported
Нас вместе: 4 079 480

Сергей Серюбин | Отец Иона Одесский. Беседа со старцем [2008] DVDRip


 
 
RSS
Начать новую тему   Ответить на тему    Торрент-трекер NNM-Club -> Религии и культы -> Религиозное видео
Автор Сообщение
Chernobyl ®
Стаж: 8 лет 1 мес.
Сообщений: 920
Ratio: 127,892
Раздал: 43,94 TB
Поблагодарили: 40227
100%
nnm-club.gif
Сергей Серюбин | Отец Иона Одесский. Беседа со старцем [2008] DVDRip
Автор (режиссер): Сергей Серюбин
Название: Отец Иона Одесский. Беседа со старцем
Год выпуска: 2008
Жанр: Документальный
Качество видео: DVDRip
Продолжительность: 01:25:53
Видеокодек: Xvid
Битрейт видео: ~1553 Кбит/сек
Размер кадра: 640x512@682x512
Аудиокодек: MP3
Битрейт аудио: 128 Кбит/сек

Описание:
Это духовная беседа с одним из выдающихся подвижников благочестия на территории всего постсоветского пространства – духовником Одесского Успенского мужского монастыря, архимандритом ИОНОЙ (Игнатенко). Многие сотни, если не тысячи его духовных чад спасают ныне свои души во всех уголках бывшего СССР.

Старец дал своё интервью, в своей келлии в Русском – на Афоне – Свято-Пантелеимоновом монастыре, где он полгода пребывал на молитвенном отдыхе. Вскоре он отбыл на Родину и ныне вновь пребывает в своей родной одесской обители, где окормляет верующих уже более тридцати лет. В беседе затрагивались вопросы общедуховного плана, глобализации, политики и монархии.

Вы неминуемо будете покорены батюшкиным смирением, скромностью и безграничной любовью к людям.
Общее
Полное имя : D:\Православные фильмы и музыка\Фильмы\последние\отец иона\Отец Иона Одесский. Беседа со старцем (2008) DVD5_Название_01.avi
Формат : AVI
Формат/Информация : Audio Video Interleave
Профиль формата : OpenDML
Размер файла : 1,02 Гбайт
Продолжительность : 1 ч. 25 м.
Общий поток : 1698 Кбит/сек
Программа кодирования : Lavf55.1.100

Видео
Идентификатор : 0
Формат : MPEG-4 Visual
Профиль формата : Simple@L3
Параметр BVOP формата : Нет
Параметр QPel формата : Нет
Параметр GMC формата : Без точки перехода
Параметр матрицы формата : Default (H.263)
Идентификатор кодека : XVID
Идентификатор кодека/Подсказка : XviD
Продолжительность : 1 ч. 25 м.
Битрейт : 1553 Кбит/сек
Ширина : 640 пикселей
Высота : 512 пикселей
Соотношение сторон : 4:3
Частота кадров : 25,000 кадров/сек
Цветовое пространство : YUV
Субдискретизация насыщенности : 4:2:0
Битовая глубина : 8 бит
Тип развёртки : Прогрессивная
Метод сжатия : С потерями
Бит/(Пиксели*Кадры) : 0.190
Размер потока : 954 Мбайт (91%)
Библиотека кодирования : XviD 64

Аудио
Идентификатор : 1
Формат : MPEG Audio
Версия формата : Version 1
Профиль формата : Layer 3
Идентификатор кодека : 55
Идентификатор кодека/Подсказка : MP3
Продолжительность : 1 ч. 25 м.
Вид битрейта : Постоянный
Битрейт : 128 Кбит/сек
Каналы : 2 канала
Частота : 48,0 КГц
Метод сжатия : С потерями
Размер потока : 78,6 Мбайт (8%)
Выравнивание : Соединение по промежуткам
Продолжительность промежутка : 24 мс. (0,60 видеокадр)
Время предзагрузки промежутка : 24 мс.
Библиотека кодирования : LAME3.99.5
Скриншоты:


Отец Иона Одесский. Беседа со старцем (2008) на NNM Club


Время раздачи: С 20:00 до 19:00 (по московскому времени)
[NNM-Club.ru]_Otets Iona Odesskiy. Beseda so startsem (2008).avi.torrent
 Торрент: Платиновая раздача  Зарегистрирован
 
Скачать


Примагнититься
 Зарегистрирован:   08 Май 2013 18:25:11
 Размер:   1,02 GB  (
 Рейтинг:   4 (Голосов: 25)
 Поблагодарили:   73
 Проверка:   Оформление проверено модератором 09 Май 2013 07:50:50
Если можете положите сколько не жалко. Деньги пойду на оплату сидбокса. Яндекс деньги: 410014704467395
Как cкачать  ·  Как раздать  ·  Правильно оформить  ·  Поднять ратио!  
ВАКТУЕК
Стаж: 4 года 10 мес.
Сообщений: 1
48%
Спасибо.
Показать сообщения:   
Начать новую тему   Ответить на тему    Торрент-трекер NNM-Club -> Религии и культы -> Религиозное видео Часовой пояс: GMT + 3
Страница 1 из 1