Классический форум-трекер
canvas not supported
Нас вместе: 4 077 726

Доспехи Бога 3: Миссия Зодиак / Chinese Zodiac (2012) DVD5


 
 
RSS
Начать новую тему   Ответить на тему    Торрент-трекер NNM-Club -> Зарубежное кино -> Азиатское кино (DVD)
Автор Сообщение
Саша 1992 ®
Модератор Видео
Стаж: 7 лет 9 мес.
Сообщений: 1496
Ratio: 473,602
Раздал: 43 TB
Поблагодарили: 128089
100%
russia.gif
Доспехи Бога 3: Миссия Зодиак / Chinese Zodiac (2012) DVD5
«Охота за сокровищами началась»

Русское название: Доспехи Бога 3: Миссия Зодиак
Оригинальное название: Chinese Zodiac
Год выпуска: 2012
Производство: Jackie Chan Emperor Movies / Emperor Dragon Movies / Emperor Motion Pictures / Emperor Classic Films [Гонконг, Китай]
Жанр: боевик, комедия, приключения
Описание фильма: Главный герой истории — работающий по всему миру охотник за сокровищами Джей Си по кличке Ястреб. Известный антиквар предлагает ему отыскать шесть редких статуэток в виде голов животных. В свое время эти бронзовые скульптуры входили в набор из 12-ти предметов, олицетворявших знаки зодиака. Фигурки украшали фонтан легендарного Летнего дворца на окраине Пекина. В 1860 году величественное сооружение было разграблено и разрушено англо-французскими войсками на исходе Второй опиумной войны, а статуэтки безвозвратно утеряны.

Сначала Джей Си с командой помощников отправляется во Францию, поскольку две статуэтки хранятся у одного из французских коллекционеров. В процессе операции по изъятию бронзовых скульптур из хорошо охраняемого замка Джей Си знакомится с Коко — китайской студенткой, учащейся в Париже. Девушка принимает активное участие в глобальной кампании по возвращению утраченных культурных ценностей в страны, откуда они были вывезены. Попутно Джей Си наживает себе злейшего врага в лице Пьера, шефа охраны замка Шато Марсо. Вместе с тем, охотник за сокровищами обретает верного друга в лице Кэтрин, разорившейся аристократки, в доме которой он находит одну из статуэток. Коко и Кэтрин присоединяются к компании Ястреба.
Режиссер: Джеки Чан
Актеры: Джеки Чан, Квон Сан У, Ляо Фань, Синтхун Яо, Чжан Ланьсинь, Лаура Вейссбеккер, Оливер Платт, Шу Ци, Дэниэл Ву, Кэйтлин Дешель
Продолжительность: 01:58:02
Перевод: Дублированный [лицензия]
Язык субтитров: Русские
Вид субтитров: Вшитые отключаемые

Дата мировой премьеры: 12 декабря 2012
Дата российской премьеры: 31 января 2013, «UPI», «Премиум Фильм»
Дата выхода DVD релиза: 14 марта 2013, «CP Дистрибуция»
Качество видео: DVD5
Видео: MPEG-2, 720х576@1024x576 (PAL 16x9), ~5022 Кбит/сек
Аудио: AC3 5.1, 448 Кбит/сек [Русский]
Title: Chinese Zodiac (2012) DVD5
Size: 4.35 Gb ( 4 564 218,00 KBytes ) - DVD-5
Enabled regions: 1, 2, 3, 4, 5, 6, 7, 8

VTS_01 :
Play Length: 01:58:02
Video: PAL 16:9 (720x576) VBR, Auto Letterboxed
Audio:
Russian (Dolby AC3, 6 ch)
Subtitles:
Russian

* Menus Information *

VIDEO_TS Menu
Video:
NTSC 4:3 (720x480) VBR
Auto Pan&Scan, Auto Letterboxed
Language Unit :

VTS_01 Menu
Video:
PAL 16:9 (720x576) VBR
Auto Letterboxed
Audio:
Not specified (Dolby AC3, 2 ch)
English Language Unit :
Root Menu
Общее
Полное имя : C:\ВИДЕО\Chinese Zodiac (2012) DVD5\VIDEO_TS\VTS_01_1.VOB
Формат : MPEG-PS
Размер файла : 1024 Мбайт
Продолжительность : 25 м.
Режим общего битрейта : Переменный
Общий поток : 5581 Кбит/сек

Видео
Идентификатор : 224 (0xE0)
Формат : MPEG Video
Версия формата : Version 2
Профиль формата : Main@Main
Параметр BVOP формата : Да
Параметр матрицы формата : Выборочная
Параметр GOP формата : Variable
Продолжительность : 25 м.
Вид битрейта : Переменный
Битрейт : 5022 Кбит/сек
Максимальный битрейт : 7715 Кбит/сек
Ширина : 720 пикселей
Высота : 576 пикселей
Соотношение сторон : 16:9
Частота кадров : 25,000 кадров/сек
Стандарт вещания : PAL
Цветовое пространство : YUV
Субдискретизация насыщенности : 4:2:0
Битовая глубина : 8 бит
Тип развёртки : Прогрессивная
Порядок развёртки : Нижнее поле первое
Метод сжатия : С потерями
Бит/(Пиксели*Кадры) : 0.484
TimeCode_FirstFrame : 00:00:00:00
TimeCode_Source : Group of pictures header
Размер потока : 921 Мбайт (90%)

Аудио
Идентификатор : 189 (0xBD)-128 (0x80)
Формат : AC-3
Формат/Информация : Audio Coding 3
Расширение режима : CM (complete main)
Параметр Endianness формата : Big
Режим смешивания : DVD-Video
Продолжительность : 25 м.
Вид битрейта : Постоянный
Битрейт : 448 Кбит/сек
Каналы : 6 каналов
Расположение каналов : Front: L C R, Side: L R, LFE
Частота : 48,0 КГц
Битовая глубина : 16 бит
Метод сжатия : С потерями
Размер потока : 82,2 Мбайт (8%)

Текст
Идентификатор : 189 (0xBD)-32 (0x20)
Формат : RLE
Формат/Информация : Run-length encoding
Режим смешивания : DVD-Video

Меню
Из исходника удалено: русский DTS, оригинальный китайский звук, реклама, предупреждающие надписи, все допы, кроме Создатели и исполнители, все лишние VTS и меню; меню обездвижено, команды диска написаны заново. Русские субтитры можно вызвать кнопкой пульта или программным способом в софтовом плеере, в меню затерта кнопка настроек. Видео сжато на 18.6 % DVD Rebuilder + CCE (5 проходов). Кроме этого использованы программы DVDRemake, Фотошоп и MuxMan.
Создатели и исполнители

Скриншоты:

Время раздачи: С 10:00 до 22:00 (до 10 скачавших)
[NNM-Club.ru]_Chinese Zodiac (2012) DVD5.torrent
 Торрент: Платиновая раздача  Зарегистрирован
 
Скачать


 Зарегистрирован:   15 Мар 2013 16:30:18
 Размер:   4,35 GB  (
 Рейтинг:   4,7 (Голосов: 77)
 Поблагодарили:   282
 Проверка:   Оформление проверено модератором 18 Мар 2013 01:41:32
Как cкачать  ·  Как раздать  ·  Правильно оформить  ·  Поднять ратио!  
save2010
Покровитель талантов
 
Стаж: 9 лет 5 мес.
Сообщений: 1676
Ratio: 5,851
Поблагодарили: 124
100%
Саша 1992 Большое спасибо Вам,что Вы откликнулись на мою просьбу! =) :респект:
LaraKroft
Стаж: 7 лет 11 мес.
Сообщений: 8
Ratio: 0,427
100%
Джеки как всегда на высоте! Хороший фильм!
Гриня1488
Стаж: 7 лет 1 мес.
Сообщений: 8
Ratio: 4,739
100%
ukraine.gif
спасибо!!! Отличный фильм)
DimkaNevidimka
 
Стаж: 11 лет 7 мес.
Сообщений: 116
Ratio: 0,685
100%
russia.gif
Спасибо! Обязательно буду смотреть))
Mr_Romizz
Стаж: 8 лет 4 мес.
Сообщений: 1536
Ratio: 2,625
100%
Откуда: Санкт-Петербург
russia.gif
ниасилили... скучный фильм
debibubi
Стаж: 9 лет 4 мес.
Сообщений: 45
Ratio: 1,849
20.59%
bolivia.gif
Mr_Romizz, согласен, 1 и 2 части были лучше, непонятно почему в начале фильма изобразили русских злобырями причем почти все русские были китайцами, фильм какой получился несмешной и наивный, вообщем-то так себе
evgenijmaklyuk
Стаж: 8 лет 4 мес.
Сообщений: 739
Ratio: 48,499
Раздал: 14,29 TB
Поблагодарили: 14149
100%
Откуда: Таганрог
russia.gif
Хотелось бы первые 2 фильма тоже на DVD5
Показать сообщения:   
Начать новую тему   Ответить на тему    Торрент-трекер NNM-Club -> Зарубежное кино -> Азиатское кино (DVD) Часовой пояс: GMT + 3
Страница 1 из 1