Классический форум-трекер
canvas not supported
Нас вместе: 4 079 379

Олимпийские игры 2012. Лондон. Художественная гимнастика. Индивидуальное многоборье. Финал (2012) SATRip


 
 
RSS
Начать новую тему   Ответить на тему    Торрент-трекер NNM-Club -> Спорт и активный отдых -> XXX Летние Олимпийские игры. Лондон 2012
Автор Сообщение
ra3wa ®
Модератор Видео
RG Releasers
Uploader 100+
 
Стаж: 9 лет 3 мес.
Сообщений: 11985
Ratio: 7786,736
Раздал: 363,6 TB
Поблагодарили: 2291306
100%
Откуда: Воронеж
russia.gif
Олимпийские игры 2012. Лондон. Художественная гимнастика. Индивидуальное многоборье. Финал (2012) SATRip
Русское название: Олимпийские игры 2012. Лондон. Художественная гимнастика. Индивидуальное многоборье. Финал
Телекомпания: Россия, НТВ+ СПОРТ ПЛЮС
Год выпуска: 2012
Жанр: Спорт, художественная гимнастика

Описание:
Художественная гимнастика — вид спорта, выполнение под музыку различных гимнастических и танцевальных упражнений без предмета, а также с предметом (скакалка, обруч, мяч, булавы, лента).

Продолжительность: 03:01:37

Перевод: Не требуется

Видеокодек: XviD
Битрейт видео: ~1780 Кбит/с
Размер кадра: 704x400
Качество видео: SATRip
Аудиокодек: MP3, 2ch
Битрейт аудио: 192 Кбит/с
Общее
Полное имя : C:\Justlan\Олимпийские игры 2012\00\Olimp.igry.Zhen.Hudoz.gimn.avi
Формат : AVI
Формат/Информация : Audio Video Interleave
Профиль формата : OpenDML
Размер файла : 2,52 Гбайт
Продолжительность : 3 ч. 1 м.
Общий поток : 1983 Кбит/сек
Библиотека кодирования : VirtualDub build 34676/release

Видео
Идентификатор : 0
Формат : MPEG-4 Visual
Профиль формата : Advanced Simple@L5
Параметр BVOP формата : 2
Параметр QPel формата : Нет
Параметр GMC формата : Без точки перехода
Параметр матрицы формата : Default (H.263)
Режим смешивания : Сжатый битовый поток
Идентификатор кодека : XVID
Идентификатор кодека/Подсказка : XviD
Продолжительность : 3 ч. 1 м.
Битрейт : 1780 Кбит/сек
Ширина : 704 пикселя
Высота : 400 пикселей
Соотношение сторон : 16:9
Частота кадров : 25,000 кадров/сек
Цветовое пространство : YUV
Субдискретизация насыщенности : 4:2:0
Битовая глубина : 8 бит
Тип развёртки : Прогрессивная
Метод сжатия : С потерями
Бит/(Пиксели*Кадры) : 0.253
Размер потока : 2,26 Гбайт (90%)
Библиотека кодирования : XviD 64

Аудио
Идентификатор : 1
Формат : MPEG Audio
Версия формата : Version 1
Профиль формата : Layer 3
Режим : Joint stereo
Расширение режима : MS Stereo
Идентификатор кодека : 55
Идентификатор кодека/Подсказка : MP3
Продолжительность : 3 ч. 1 м.
Вид битрейта : Постоянный
Битрейт : 192 Кбит/сек
Каналы : 2 канала
Частота : 48,0 КГц
Метод сжатия : С потерями
Размер потока : 249 Мбайт (10%)
Выравнивание : Разделение по промежуткам
Продолжительность промежутка : 40 мс. (1,00 видеокадр)
Время предзагрузки промежутка : 500 мс.
Библиотека кодирования : LAME3.98.2
Скриншоты:

Время раздачи: Круглосуточно до 10 скачавших
[NNM-Club.ru]_Olimp.igry.Zhen.Hudoz.gimn.avi.torrent
 Торрент: Золотая раздача  Зарегистрирован
 
Зарегистрируйтесь и скачайте торрент!
12,8 KB

Примагнититься
 Зарегистрирован:   13 Авг 2012 09:32:57
 Размер:   2,52 GB  (
 Рейтинг:   4,6 (Голосов: 16)
 Поблагодарили:   52
 Проверка:   Оформление проверено модератором 13 Авг 2012 10:45:51
Как cкачать  ·  Как раздать  ·  Правильно оформить  ·  Поднять ратио!  
dasuv
Стаж: 9 лет 2 мес.
Сообщений: 34
Ratio: 19,462
Поблагодарили: 556
100%
russia.gif
Люди, плиз - может у кого есть художественная гимнастика групповая и синхронное плаванье групповое и парное????
Elenadmaket
Стаж: 6 лет 10 мес.
Сообщений: 11
Ratio: 2,478
89.8%
ra3wa
Олимпийские игры 2012. Лондон. Художественная гимнастика. Индивидуальное многоборье. Финал (2012) SATRip

Не раздаете больше???
Показать сообщения:   
Начать новую тему   Ответить на тему    Торрент-трекер NNM-Club -> Спорт и активный отдых -> XXX Летние Олимпийские игры. Лондон 2012 Часовой пояс: GMT + 3
Страница 1 из 1