Классический форум-трекер
canvas not supported
Нас вместе: 4 077 126

Финист - Ясный сокол (1975) DVD5


 
 
RSS
Начать новую тему   Ответить на тему    Торрент-трекер NNM-Club -> Видео -> Отечественные Фильмы для детей
Автор Сообщение
denver7979 ®
Зам. Куратора Детского.
Модератор Видео.
RG Всё лучшее - детям!
 
Стаж: 8 лет 8 мес.
Сообщений: 7568
Ratio: 491,242
Раздал: 33,9 TB
Поблагодарили: 308913
100%
Откуда: Земля
ussr.gif
Финист - Ясный сокол (1975) DVD5
Русское название: Финист - Ясный сокол
Год выпуска: 1975
Жанр: Приключения, Фэнтези, Сказка
Язык: Русский, Немецкий

Режиссер: Геннадий Васильев
Актеры: Вячеслав Воскресенский, Светлана Орлова, Михаил Кононов, Михаил Пуговкин, Людмила Хитяева, Георгий Вицин, Мария Барабанова, Гликерия Богданова-Чеснокова, Анна Строганова, Алексей Смирнов

Описание фильма:
В стародавние времена жил на Руси пахарь, звали его Финист. Был он могучий богатырь, защищал отчизну от чужеземных захватчиков. Но однажды хитроумный прихвостень заморского царя заманил его в подземелье и заколдовал! Превратился богатырь в страшное чудище. А расколдовать его может только красна девица… Если она полюбит его в таком облике, он снова станет прежним Соколом! И тогда злым силам уж точно несдобровать!



Субтитры: Отсутствуют
Меню: Присутствует

Продолжительность: 01:14:50
Качество видео: DVD 5

Видео: MPEG 2, 720x576 (16:9), 25.000 fps, 8 000 Kbps (0.728 bit/pixel)
Аудио #1: AC-3, 48.0 KHz, 1 ch, 96.0 Kbps, CBR [Оригинальная, Русский]
Аудио #2: AC-3, 48.0 KHz, 2 ch, 192 Kbps, CBR [Дублированная, Немецкий]
Видео
Идентификатор : 224 (0xE0)
Формат : MPEG Video
Версия формата : Version 2
Профиль формата : Main@Main
Параметр BVOP формата : Да
Параметр матрицы формата : По умолчанию
Параметр GOP формата : M=3, N=12
Продолжительность : 18 м.
Вид битрейта : Переменный
Битрейт : 7469 Кбит/сек
Максимальный битрейт : 8000 Кбит/сек
Ширина : 720 пикселей
Высота : 576 пикселей
Соотношение сторон : 16:9
Частота кадров : 25,000 кадров/сек
Стандарт вещания : PAL
Цветовое пространство : YUV
Субдискретизация насыщенности : 4:2:0
Битовая глубина : 8 бит
Тип развёртки : Чересстрочная
Порядок развёртки : Нижнее поле первое
Метод сжатия : С потерями
Бит/(Пиксели*Кадры) : 0.720
Размер потока : 966 Мбайт (94%)

Аудио #1
Идентификатор : 189 (0xBD)-128 (0x80)
Формат : AC-3
Формат/Информация : Audio Coding 3
Расширение режима : CM (complete main)
Режим смешивания : DVD-Video
Продолжительность : 18 м.
Вид битрейта : Постоянный
Битрейт : 96,0 Кбит/сек
Каналы : 1 канал
Расположение каналов : Front: C
Частота : 48,0 КГц
Битовая глубина : 16 бит
Метод сжатия : С потерями
Задержка видео : -352 мс.
Размер потока : 12,4 Мбайт (1%)

Аудио #2
Идентификатор : 189 (0xBD)-129 (0x81)
Формат : AC-3
Формат/Информация : Audio Coding 3
Расширение режима : CM (complete main)
Режим смешивания : DVD-Video
Продолжительность : 18 м.
Вид битрейта : Постоянный
Битрейт : 192 Кбит/сек
Каналы : 2 канала
Расположение каналов : Front: L R
Частота : 48,0 КГц
Битовая глубина : 16 бит
Метод сжатия : С потерями
Задержка видео : -416 мс.
Размер потока : 24,8 Мбайт (2%)
Меню
Скриншоты:



Без реставрации

Финист - Ясный сокол на NNM - club

Время раздачи: с 11:00 до 01:00
[NNM-Club.ru]_Finist.Yasnyy.sokol.1975.DVD-5.torrent
 Торрент: Платиновая раздача  Зарегистрирован
 
Скачать


Примагнититься
 Зарегистрирован:   31 Дек 2011 19:47:28
 Размер:   4,2 GB  (
 Рейтинг:   5 (Голосов: 27)
 Поблагодарили:   105
 Проверка:   Оформление проверено модератором 31 Дек 2011 19:52:58
Как cкачать  ·  Как раздать  ·  Правильно оформить  ·  Поднять ратио!  
kolman67
Стаж: 4 года 10 мес.
Сообщений: 273
Ratio: 108,492
Раздал: 14,75 TB
Поблагодарили: 2123
100%
australia.gif
Большое спасибо !
Показать сообщения:   
Начать новую тему   Ответить на тему    Торрент-трекер NNM-Club -> Видео -> Отечественные Фильмы для детей Часовой пояс: GMT + 3
Страница 1 из 1