Классический форум-трекер
canvas not supported
Нас вместе: 4 071 399

BBC: Планета динозавров. Совершенные убийцы / Planet dinosaur. Ultimate killers (2012) BDRip [1080p] 3D [Вертикальная анаморфная стереопара]


 
 
RSS
Начать новую тему   Ответить на тему    Торрент-трекер NNM-Club -> Зарубежные TV-бренды -> Доисторический мир
Автор Сообщение
kyba ®
Uploader 500+
Стаж: 10 лет 10 мес.
Сообщений: 1013
Ratio: 5706,597
Раздал: 666,8 TB
Поблагодарили: 20685
100%
BBC: Планета динозавров. Совершенные убийцы / Planet dinosaur. Ultimate killers (2012) BDRip [1080p] 3D [Вертикальная анаморфная стереопара]
Режиссер / Телекомпания: Найджел Патерсон / BBC
Русское название: Планета динозавров. Совершенные убийцы
Оригинальное название: Planet dinosaur. Ultimate killers
Год выпуска: 2012
Выпущено: Великобритания, BBC Television Centre, Canal+ [fr], Jellyfish Pictures
Жанр: Документальный, научно-познавательный, палеонтология

Описание:
Фильм «Совершенные убийцы» - дополнение к сериалу «Планета динозавров», который является самым амбициозным проектом, созданным с помощью компьютерной графики, после «Прогулок с динозаврами» (Walking with Dinosaurs), выпущенных десятилетие назад.



Продолжительность: 00:52:51
Качество видео: BDRip 3D [Ash61]

Перевод: Одноголосый закадровый, профессиональный

Видеокодек: MPEG-4 AVC/H.264
Битрейт видео: ~8 329 kb/s
Размер кадра: 1920x1080
Аудио 1: Русский AC3, 6 ch, 640 kb/s
Аудио 2: Английский AC3, 6 ch, 640 kb/s
Сэмпл 1: Скачать
Сэмпл 2: Скачать
General
Unique ID : 221577756822054220710500613590785767626 (0xA6B252DD2D009DF687FEAD86075CB8CA)
Complete name : M:\Торренты\Фильмы\3D\PlanetDinosaur(2012)3D-halfOU(Ash61)VO.mkv
Format : Matroska
Format version : Version 2
File size : 3.62 GiB
Duration : 52mn 51s
Overall bit rate : 9 804 Kbps
Movie name : Planet Dinosaur (2012) 3D
Encoded date : UTC 2014-09-27 19:56:52
Writing application : mkvmerge v5.8.0 ('No Sleep / Pillow') built on Sep 2 2012 15:37:04
Writing library : libebml v1.2.3 + libmatroska v1.3.0

Video
ID : 1
Format : AVC
Format/Info : Advanced Video Codec
Format profile : High@L4.1
Format settings, CABAC : Yes
Format settings, ReFrames : 4 frames
Codec ID : V_MPEG4/ISO/AVC
Duration : 52mn 51s
Bit rate : 8 329 Kbps
Width : 1 920 pixels
Height : 1 080 pixels
Display aspect ratio : 16:9
Frame rate mode : Constant
Frame rate : 23.976 fps
Color space : YUV
Chroma subsampling : 4:2:0
Bit depth : 8 bits
Scan type : Progressive
Bits/(Pixel*Frame) : 0.168
Stream size : 3.07 GiB (85%)
Title : BDRip by Ash61
Writing library : x264 core 119 r2106 07efeb4
Encoding settings : cabac=1 / ref=4 / deblock=1:-3:-3 / analyse=0x3:0x113 / me=umh / subme=9 / psy=1 / psy_rd=1.00:0.15 / mixed_ref=1 / me_range=16 / chroma_me=1 / trellis=2 / 8x8dct=1 / cqm=0 / deadzone=21,11 / fast_pskip=1 / chroma_qp_offset=-3 / threads=3 / sliced_threads=0 / nr=0 / decimate=1 / interlaced=0 / bluray_compat=0 / constrained_intra=0 / bframes=6 / b_pyramid=2 / b_adapt=2 / b_bias=0 / direct=3 / weightb=1 / open_gop=0 / weightp=2 / keyint=250 / keyint_min=23 / scenecut=40 / intra_refresh=0 / rc_lookahead=60 / rc=crf / mbtree=1 / crf=18.0 / qcomp=0.70 / qpmin=0 / qpmax=69 / qpstep=4 / vbv_maxrate=40000 / vbv_bufsize=40000 / crf_max=0.0 / nal_hrd=none / frame-packing=4 / ip_ratio=1.40 / aq=1:0.70
Language : English
Default : Yes
Forced : No

Audio #1
ID : 2
Format : AC-3
Format/Info : Audio Coding 3
Mode extension : CM (complete main)
Format settings, Endianness : Big
Codec ID : A_AC3
Duration : 52mn 51s
Bit rate mode : Constant
Bit rate : 640 Kbps
Channel(s) : 6 channels
Channel positions : Front: L C R, Side: L R, LFE
Sampling rate : 48.0 KHz
Bit depth : 16 bits
Compression mode : Lossy
Stream size : 242 MiB (7%)
Title : Одноголосый закадровый - В. Курдов
Language : Russian
Default : Yes
Forced : No

Audio #2
ID : 3
Format : AC-3
Format/Info : Audio Coding 3
Mode extension : CM (complete main)
Format settings, Endianness : Big
Codec ID : A_AC3
Duration : 52mn 51s
Bit rate mode : Constant
Bit rate : 640 Kbps
Channel(s) : 6 channels
Channel positions : Front: L C R, Side: L R, LFE
Sampling rate : 48.0 KHz
Bit depth : 16 bits
Compression mode : Lossy
Stream size : 242 MiB (7%)
Title : Original - BD 3D
Language : English
Default : No
Forced : No

Menu
00:00:00.000 : :1
00:09:08.965 : :2
00:15:32.056 : :3
00:22:49.326 : :4
00:29:03.325 : :5
00:36:43.827 : :6
00:43:18.513 : :7
00:52:15.090 : :8
Скриншоты:





Rip by Ash61

Планета динозавров на nnm-club

Время раздачи: 24\7 по возможности
[NNM-Club.me]_PlanetDinosaur(2012)3D-halfOU(Ash61)VO.mkv.torrent
 Торрент: Платиновая раздача  Зарегистрирован
 
Скачать


Примагнититься
 Зарегистрирован:   28 Сен 2014 13:41:28
 Размер:   3,62 GB  (
 Рейтинг:   4,8 (Голосов: 52)
 Поблагодарили:   246
 Проверка:   Оформление проверено модератором 30 Сен 2014 18:00:11
Как cкачать  ·  Как раздать  ·  Правильно оформить  ·  Поднять ратио!  
vlyav
Стаж: 7 лет 10 мес.
Сообщений: 110
Ratio: 6,6
100%
ukraine.gif
Честно по графике и физике движения как-то не чувствуется, что предыдущий фильм отстает на 10 лет. Они один-в-один по уровню исполнения, т.е. средненько. А так, да познавательно, но не зрелищно. Вылетов как бы тоже нет, только незначительные отрицательные параллаксы (это когда морда чуток из экрана) =)
memo999
Стаж: 8 лет 2 мес.
Сообщений: 110
Ratio: 2,101
100%
honduras.gif
а где сэмплы?

Цитата:
Файл не найден. Автор мог удалить сам, мог истечь срок годности, или поступила жалоба на нарушение прав!
Показать сообщения:   
Начать новую тему   Ответить на тему    Торрент-трекер NNM-Club -> Зарубежные TV-бренды -> Доисторический мир Часовой пояс: GMT + 3
Страница 1 из 1