Классический форум-трекер
canvas not supported
Нас вместе: 4 071 034
loading...

Доктор Хаус / House M.D. (2007-2008) WEB-DL [H.264/1080p-LQ] (Сезон 4, серии 1-16 из 16) LostFilm, Домашний


 
 
RSS
Начать новую тему   Ответить на тему    Торрент-трекер NNM-Club -> Зарубежные сериалы -> Доктор Хаус / House M.D.
Автор Сообщение
CEBEPu2D ®
Стаж: 8 лет 5 мес.
Сообщений: 197
Ratio: 99,483
Поблагодарили: 3452
100%
Откуда: адукто
russia.gif

Доктор Хаус / House M.D. (2007-2008) WEB-DL [H.264/1080p-LQ] (Сезон 4, серии 1-16 из 16) LostFilm, Домашний
Год выпуска: 2007-2008
Страна: США
Жанр: Комедия, драма
Продолжительность: ~ 00:45:00 серия
Перевод: Профессиональный (многоголосый, одноголосый закадровый) LostFilm, Домашний
Режиссер: Дэвид Шор
Актеры: Хью Лори, Лиза Эдельштейн, Омар Эппс, Роберт Шон Леонард, Дженнифер Моррисон, Джесси Спенсер
Описание: Доктор Грегори Хауз (Хью Лори) не отличается проникновенностью в общении с больными и с удовольствием избегает их, если только есть возможность. Он сам всё время проводит в борьбе с собственной болью, а трость в его руке только подчеркивает его жесткую ядовитую манеру общения.
Порой его поведение можно назвать почти бесчеловечным, и при этом он прекрасный врач, обладаюший нетипичным умом и безупречным инстинктом, что снискало ему глубокое уважение. Будучи инфекционистом, он ещё и замечательный диагност, который любит разгадывать медицинские загадки, чтобы спасти кому-то жизнь.
Релизер : Автор Раздачи - АКТЕР aka CEBEPu2D
Работа со звуком: : doc.logan
Озвучка : LostFilm (студия «Кравец»), Домашний


Сэмпл / Все раздачи сериала
Качество: WEB-DL 1080p
Видеокодек: MPEG-4 AVC/H.264
Битрейт видео: ~ 5000 Кбит/с
Размер кадра: 1920x1080
Аудио #1: АС3, 6 ch, 384 Кбит/с (Русский) |LoftFilm|
Аудио #2: АС3, 2 ch, 192 Кбит/с (Русский) |Домашний|
Аудио #3: АС3, 6 ch, 384 Кбит/с (Английский)
Вид субтитров: Вшитые, отключаемые
Язык субтитров: Русский, английский
01. Один / Alone
02. То, что нужно / The Right Stuff
03. 97 секунд / 97 Seconds
04. Ангелы-хранители / Guardian Angels
05. Зеркало, зеркало / Mirror Mirror
06. Готовы на всё / Whatever It Takes
07. Урод / Ugly
08. Лучше тебе не знать / You Don't Want to Know
09. Игры / Games
10. Чудесная ложь / It's a Wonderful Lie
11. Во льдах / Frozen
12. Никогда не меняйся / Don't Ever Change
13. Прощайте, мистер Добряк / No More Mr. Nice Guy
14. Воплощая мечты / Living the Dream
15. Голова Хауса / House's Head
16. Сердце Уилсона / Wilson's Heart
Полное имя : E:\House.M.D.S04E01.Alone.1080p.WEB-DL.by.AKTEP.mkv
Формат : Matroska
Версия формата : Version 4 / Version 2
Размер файла : 1,91 Гбайт
Продолжительность : 43 м.
Общий поток : 6252 Кбит/сек
Дата кодирования : UTC 2014-08-09 14:49:56
Программа кодирования : mkvmerge v6.2.0 ('Promised Land') built on Apr 28 2013 12:22:01
Библиотека кодирования : libebml v1.3.0 + libmatroska v1.4.0

Видео
Идентификатор : 1
Формат : AVC
Формат/Информация : Advanced Video Codec
Профиль формата : High@L4.0
Параметр CABAC формата : Да
Параметр ReFrames формата : 4 кадра
Идентификатор кодека : V_MPEG4/ISO/AVC
Продолжительность : 43 м.
Битрейт : 5168 Кбит/сек
Ширина : 1920 пикселей
Высота : 1080 пикселей
Соотношение сторон : 16:9
Режим частоты кадров : Постоянный
Частота кадров : 23,976 кадра/сек
Цветовое пространство : YUV
Субдискретизация насыщенности : 4:2:0
Битовая глубина : 8 бит
Тип развёртки : Прогрессивная
Бит/(Пиксели*Кадры) : 0.104
Размер потока : 1,58 Гбайт (83%)
Заголовок : by AKTEP
Язык : English
Default : Да
Forced : Нет
Основные цвета : BT.709
Характеристики трансфера : BT.709
Коэффициенты матрицы : BT.709

Аудио #1
Идентификатор : 2
Формат : AC-3
Формат/Информация : Audio Coding 3
Расширение режима : CM (complete main)
Параметр Endianness формата : Big
Идентификатор кодека : A_AC3
Продолжительность : 43 м.
Вид битрейта : Постоянный
Битрейт : 384 Кбит/сек
Каналы : 6 каналов
Расположение каналов : Front: L C R, Side: L R, LFE
Частота : 48,0 КГц
Битовая глубина : 16 бит
Метод сжатия : С потерями
Размер потока : 120 Мбайт (6%)
Заголовок : AC3 5.1 384 kbps Многоголосый закадровый - студия Кравец
Язык : Russian
Default : Да
Forced : Нет

Аудио #2
Идентификатор : 3
Формат : AC-3
Формат/Информация : Audio Coding 3
Расширение режима : CM (complete main)
Параметр Endianness формата : Big
Идентификатор кодека : A_AC3
Продолжительность : 43 м.
Вид битрейта : Постоянный
Битрейт : 192 Кбит/сек
Каналы : 2 канала
Расположение каналов : Front: L R
Частота : 48,0 КГц
Битовая глубина : 16 бит
Метод сжатия : С потерями
Размер потока : 60,0 Мбайт (3%)
Заголовок : AC3 2.0 192 kbps Многоголосый закадровый - телеканал Домашний
Язык : Russian
Default : Нет
Forced : Нет

Аудио #3
Идентификатор : 4
Формат : AC-3
Формат/Информация : Audio Coding 3
Расширение режима : CM (complete main)
Параметр Endianness формата : Big
Идентификатор кодека : A_AC3
Продолжительность : 43 м.
Вид битрейта : Постоянный
Битрейт : 384 Кбит/сек
Каналы : 6 каналов
Расположение каналов : Front: L C R, Side: L R, LFE
Частота : 48,0 КГц
Битовая глубина : 16 бит
Метод сжатия : С потерями
Размер потока : 120 Мбайт (6%)
Заголовок : AC3 5.1 384 kbps
Язык : English
Default : Нет
Forced : Нет

Текст #1
Идентификатор : 5
Формат : UTF-8
Идентификатор кодека : S_TEXT/UTF8
Идентификатор кодека/Информация : UTF-8 Plain Text
Язык : Russian
Default : Нет
Forced : Нет

Текст #2
Идентификатор : 6
Формат : UTF-8
Идентификатор кодека : S_TEXT/UTF8
Идентификатор кодека/Информация : UTF-8 Plain Text
Язык : English
Default : Нет
Forced : Нет
Скриншоты:


Время раздачи: 24/7 - круглосуточно / до появления 5-10 сидов

Убедительная просьба скачавших не уходить с раздачи подольше, желательно вечно :) , буду весьма благодарен, и не я 1 думаю
[NNM-Club.me]_House.M.D.S04.1080p.WEB-DL.by.AKTEP.torrent
 Торрент: Платиновая раздача  Зарегистрирован
 
Скачать


Примагнититься
 Зарегистрирован:   01 Сен 2014 13:20:44
 Размер:   30,6 GB  (
 Рейтинг:   4,9 (Голосов: 38)
 Поблагодарили:   125
 Проверка:   Оформление проверено модератором 01 Сен 2014 17:34:25
Как cкачать  ·  Как раздать  ·  Правильно оформить  ·  Поднять ратио!  
CEBEPu2D ®
Стаж: 8 лет 5 мес.
Сообщений: 197
Ratio: 99,483
Поблагодарили: 3452
100%
Откуда: адукто
russia.gif
инфа по 5 сезону ... с 5 сезона пойдут кач. bdrip-ы 720р

_________________
Проблема мира: умные телефоны, и глупые люди
Dave66
Стаж: 8 лет 2 мес.
Сообщений: 2
Ratio: 0,63
71.43%
israel.gif
Я пересматриваю этот сериал в третий раз.
Конечно, не подряд... Проходит время.
Гениальный проект.
Концовка не продумана. Хотели завершить.
Показать сообщения:   
Начать новую тему   Ответить на тему    Торрент-трекер NNM-Club -> Зарубежные сериалы -> Доктор Хаус / House M.D. Часовой пояс: GMT + 3
Страница 1 из 1