Классический форум-трекер
canvas not supported
Нас вместе: 4 077 066

Денискины рассказы (1970) DVDRip


 
 
RSS
Начать новую тему   Ответить на тему    Торрент-трекер NNM-Club -> Видео -> Отечественные Фильмы для детей
Автор Сообщение
denver7979 ®
Зам. Куратора Детского.
Модератор Видео.
RG Всё лучшее - детям!
 
Стаж: 8 лет 8 мес.
Сообщений: 7568
Ratio: 491,242
Раздал: 33,9 TB
Поблагодарили: 309027
100%
Откуда: Земля
ussr.gif
Денискины рассказы (1970) DVDRip
Русское название: Денискины рассказы
Год выпуска: 1970
Страна: СССР
Киностудия: Ленфильм
Жанр: Кинорассказы для детей

Режиссер: Борис Горлов, Аян Шахмалиева, Марк Генин, Евгений Татарский
Актеры: Сережа Крупенников, Алеша Сироткин, Андрей Петров, Антонина Павлычева, Петя Моисеев, Ролан Быков, Алеша Сироткин, Рита Сергеечева, Валентина Теличкина, Саша Михайлов, Леня Михайлов, Рита Сергеечева, Сережа Годунов, Клара Лучко, Олег Басилашвили, Саша Михайлов, Саша Хмельницкий, Олег Даль, Лиана Жвания, Ольга Богданова, Рита Сергеечева, Витя Татарский, Е. Ванчугова

Описание фильма:
Лента «Денискины рассказы» включает в себя четыре новеллы:
Подзорная труба:
Родители Дениса Кораблева уставшие от шалостей своего сынишки. Смастерили «подзорную трубу», которая якобы им позволяет всегда наблюдать за Дениской…
Детский телевизионный художественный фильм.
Новелла по мотивам рассказа из книги Виктора Драгунского «Денискины рассказы».
Пожар во флигеле или подвиг во льдах:
Шалун Денис Кораблев и его дружок Мишка Слонов в очередной раз опаздывают на урок. И причина вроде бы уважительная – мальчишки помогали ловить орла, улетевшего из живого уголка, но им, конечно, никто не верит…
Детская телевизионная киноповесть по книге Виктора Драгунского «Денискины рассказы».
Капитан:
Денис Кораблев, веселый мальчишка, мечтающий о дальних странствиях, наконец встречается со «старым морским волком», своими дядей, капитаном дальнего плавания.
Детская киноповесть по мотивам рассказов Виктора Драгунского.
Где это видано, где это слыхано:
Денис Кораблев, ученик младших классов. Не обладая особыми музыкальными талантами,
вызывается петь на школьном утреннике сатирические частушки…
Детская комедия. Телефильм по рассказам Виктора Драгунского.



Продолжительность: ~01:35:00
Качество видео: DVDRip

Видео: MPEG4, XviD, 720x544 (4/3), 25.000 fps, ~2642 Kbps (0.236 bit/pixel)
Аудио: AC-3, 48.0 KHz, 2 ch, 192 Kbps, CBR
«Подзорная труба»

В ролях: Саша Михайлов, Леня Михайлов, Рита Сергеечева, Сережа Годунов, Клара Лучко, Олег Басилашвили
Режиссер-постановщик: Марк Генин
Автор сценария: Валерий Попов
Оператор-постановщик: Владимир Бурыкин
Художник-постановщик: Марксен Гаухман-Свердлов
Композитор: Владлен Чистяков
Звукорежиссер: Тигран Силаев

Oписание:
Родители Дениса Кораблева уставшие от шалостей своего сынишки. Смастерили «подзорную трубу», которая якобы им позволяет всегда наблюдать за Дениской…
Детский телевизионный художественный фильм.
Новелла по мотивам рассказа из книги Виктора Драгунского «Денискины рассказы».

Видео: MPEG4, XviD, 720x544 (4/3), 25.000 fps, 2 642 Kbps (0.270 bit/pixel)
Аудио: AC-3, 48.0 KHz, 2 ch, 192 Kbps, CBR
Видео
Идентификатор : 0
Формат : MPEG-4 Visual
Профиль формата : Simple@L0
Параметр BVOP формата : Нет
Параметр QPel формата : Нет
Параметр GMC формата : Без точки перехода
Параметр матрицы формата : Default (H.263)
Идентификатор кодека : XVID
Идентификатор кодека/Подсказка : XviD
Продолжительность : 17 м.
Битрейт : 2642 Кбит/сек
Ширина : 720 пикселей
Высота : 544 пикселя
Соотношение сторон : 4:3
Частота кадров : 25,000 кадров/сек
Цветовое пространство : YUV
Субдискретизация насыщенности : 4:2:0
Битовая глубина : 8 бит
Тип развёртки : Прогрессивная
Метод сжатия : С потерями
Бит/(Пиксели*Кадры) : 0.270
Размер потока : 336 Мбайт (93%)
Библиотека кодирования : XviD 1.1.0 (UTC 2005-11-22)

Аудио
Идентификатор : 1
Формат : AC-3
Формат/Информация : Audio Coding 3
Расширение режима : CM (complete main)
Идентификатор кодека : 2000
Продолжительность : 17 м.
Вид битрейта : Постоянный
Битрейт : 192 Кбит/сек
Каналы : 2 канала
Расположение каналов : Front: L R
Частота : 48,0 КГц
Битовая глубина : 16 бит
Метод сжатия : С потерями
Размер потока : 24,4 Мбайт (7%)
Выравнивание : Разделение по промежуткам
Продолжительность промежутка : 40 мс. (1,00 видеокадр)
Время предзагрузки промежутка : 500 мс.
Скриншоты:


«Пожар во флигеле или подвиг во льдах»

В ролях: Саша Михайлов, Саша Хмельницкий, Олег Даль, Лиана Жвания, Ольга Богданова, Рита Сергеечева, Витя Татарский, Е. Ванчугова
Режиссер-постановщик: Евгений Татарский
Автор сценария: Валерий Попов
Оператор-постановщик: Генрих Маранджян
Художник-постановщик: Исаак Каплан
Композитор: Исаак Шварц
Звукорежиссер: Константин Лашков

Oписание:
Шалун Денис Кораблев и его дружок Мишка Слонов в очередной раз опаздывают на урок. И причина вроде бы уважительная – мальчишки помогали ловить орла, улетевшего из живого уголка, но им, конечно, никто не верит…
Детская телевизионная киноповесть по книге Виктора Драгунского «Денискины рассказы».

Видео: MPEG4, XviD, 720x544 (4/3), 25.000 fps, 2 387 Kbps (0.244 bit/pixel)
Аудио: AC-3, 48.0 KHz, 2 ch, 192 Kbps, CBR
Видео
Идентификатор : 0
Формат : MPEG-4 Visual
Профиль формата : Simple@L0
Параметр BVOP формата : Нет
Параметр QPel формата : Нет
Параметр GMC формата : Без точки перехода
Параметр матрицы формата : Default (H.263)
Идентификатор кодека : XVID
Идентификатор кодека/Подсказка : XviD
Продолжительность : 17 м.
Битрейт : 2387 Кбит/сек
Ширина : 720 пикселей
Высота : 544 пикселя
Соотношение сторон : 4:3
Частота кадров : 25,000 кадров/сек
Цветовое пространство : YUV
Субдискретизация насыщенности : 4:2:0
Битовая глубина : 8 бит
Тип развёртки : Прогрессивная
Метод сжатия : С потерями
Бит/(Пиксели*Кадры) : 0.244
Размер потока : 300 Мбайт (92%)
Библиотека кодирования : XviD 1.1.0 (UTC 2005-11-22)

Аудио
Идентификатор : 1
Формат : AC-3
Формат/Информация : Audio Coding 3
Расширение режима : CM (complete main)
Идентификатор кодека : 2000
Продолжительность : 17 м.
Вид битрейта : Постоянный
Битрейт : 192 Кбит/сек
Каналы : 2 канала
Расположение каналов : Front: L R
Частота : 48,0 КГц
Битовая глубина : 16 бит
Метод сжатия : С потерями
Задержка видео : 16 мс.
Размер потока : 24,1 Мбайт (7%)
Выравнивание : Разделение по промежуткам
Продолжительность промежутка : 40 мс. (1,00 видеокадр)
Время предзагрузки промежутка : 500 мс.
Скриншоты:

«Капитан»

В ролях: Петя Моисеев, Ролан Быков, Алеша Сироткин, Рита Сергеечева, Валентина Теличкина
Режиссер-постановщик: Аян Шахмалиева
Автор сценария: Мария Зверева
Оператор-постановщик: Борис Тимковский
Художник-постановщик: Марксен Гаухман-Свердлов
Композитор: Исаак Шварц
Звукорежиссер: Тигран Силаев

Oписание:
Денис Кораблев, веселый мальчишка, мечтающий о дальних странствиях, наконец встречается со «старым морским волком», своими дядей, капитаном дальнего плавания.
Детская киноповесть по мотивам рассказов Виктора Драгунского.

Видео: MPEG4, XviD, 720x544 (4/3), 25.000 fps, 2 084 Kbps (0.213 bit/pixel)
Аудио: AC-3, 48.0 KHz, 2 ch, 192 Kbps, CBR
Видео
Идентификатор : 0
Формат : MPEG-4 Visual
Профиль формата : Simple@L0
Параметр BVOP формата : Нет
Параметр QPel формата : Нет
Параметр GMC формата : Без точки перехода
Параметр матрицы формата : Default (H.263)
Идентификатор кодека : XVID
Идентификатор кодека/Подсказка : XviD
Продолжительность : 27 м.
Битрейт : 2084 Кбит/сек
Ширина : 720 пикселей
Высота : 544 пикселя
Соотношение сторон : 4:3
Частота кадров : 25,000 кадров/сек
Цветовое пространство : YUV
Субдискретизация насыщенности : 4:2:0
Битовая глубина : 8 бит
Тип развёртки : Прогрессивная
Метод сжатия : С потерями
Бит/(Пиксели*Кадры) : 0.213
Размер потока : 415 Мбайт (91%)
Библиотека кодирования : XviD 1.1.0 (UTC 2005-11-22)

Аудио
Идентификатор : 1
Формат : AC-3
Формат/Информация : Audio Coding 3
Расширение режима : CM (complete main)
Идентификатор кодека : 2000
Продолжительность : 27 м.
Вид битрейта : Постоянный
Битрейт : 192 Кбит/сек
Каналы : 2 канала
Расположение каналов : Front: L R
Частота : 48,0 КГц
Битовая глубина : 16 бит
Метод сжатия : С потерями
Размер потока : 38,2 Мбайт (8%)
Выравнивание : Разделение по промежуткам
Продолжительность промежутка : 40 мс. (1,00 видеокадр)
Время предзагрузки промежутка : 500 мс.
Скриншоты:


«Где это видано, где это слыхано»

В ролях: Сережа Крупенников, Алеша Сироткин, Андрей Петров, Антонина Павлычева
Режиссер-постановщик: Борис Горлов
Автор сценария: Мария Зверева
Оператор-постановщик: Ростислав Давыдов
Художник-постановщик: Лариса Шилова
Композитор: Исаак Шварц
Звукорежиссер: Константин Лашков.

Oписание:
Денис Кораблев, ученик младших классов. Не обладая особыми музыкальными талантами,
вызывается петь на школьном утреннике сатирические частушки…
Детская комедия. Телефильм по рассказам Виктора Драгунского.

Видео: MPEG4, XviD, 720x544 (4/3), 25.000 fps, 2 312 Kbps (0.236 bit/pixel)
Аудио: AC-3, 48.0 KHz, 2 ch, 192 Kbps, CBR
Видео
Идентификатор : 0
Формат : MPEG-4 Visual
Профиль формата : Simple@L0
Параметр BVOP формата : Нет
Параметр QPel формата : Нет
Параметр GMC формата : Без точки перехода
Параметр матрицы формата : Default (H.263)
Идентификатор кодека : XVID
Идентификатор кодека/Подсказка : XviD
Продолжительность : 24 м.
Битрейт : 2312 Кбит/сек
Ширина : 720 пикселей
Высота : 544 пикселя
Соотношение сторон : 4:3
Частота кадров : 25,000 кадров/сек
Цветовое пространство : YUV
Субдискретизация насыщенности : 4:2:0
Битовая глубина : 8 бит
Тип развёртки : Прогрессивная
Метод сжатия : С потерями
Бит/(Пиксели*Кадры) : 0.236
Размер потока : 409 Мбайт (92%)
Библиотека кодирования : XviD 1.1.0 (UTC 2005-11-22)

Аудио
Идентификатор : 1
Формат : AC-3
Формат/Информация : Audio Coding 3
Расширение режима : CM (complete main)
Идентификатор кодека : 2000
Продолжительность : 24 м.
Вид битрейта : Постоянный
Битрейт : 192 Кбит/сек
Каналы : 2 канала
Расположение каналов : Front: L R
Частота : 48,0 КГц
Битовая глубина : 16 бит
Метод сжатия : С потерями
Размер потока : 34,0 Мбайт (8%)
Выравнивание : Разделение по промежуткам
Продолжительность промежутка : 40 мс. (1,00 видеокадр)
Время предзагрузки промежутка : 500 мс.
Скриншоты:
Скриншоты:


Время раздачи: c 11:00 до 01:00
[NNM-Club.ru]_Deniskinyi rasskazyi_NNM.torrent
 Торрент: Платиновая раздача  Зарегистрирован
 
Скачать


Примагнититься
 Зарегистрирован:   23 Фев 2012 14:00:11
 Размер:   1,55 GB  (
 Рейтинг:   4,9 (Голосов: 123)
 Поблагодарили:   548
 Проверка:   Оформление проверено модератором 23 Фев 2012 14:04:56
Как cкачать  ·  Как раздать  ·  Правильно оформить  ·  Поднять ратио!  
Fouk
Стаж: 7 лет 6 мес.
Сообщений: 11
Ratio: 13,319
Поблагодарили: 373
100%
Отличный фильм. Всем советую :)
За раздачу "Спасибо" !
sined1
Стаж: 9 лет 10 мес.
Сообщений: 92
Ratio: 4,852
100%
С П А С И Б О раздающему ГРОМАДНЕЙШЕЕ!!!!!!!!!!!!!!
nataozy
Стаж: 7 лет 7 мес.
Сообщений: 9
Ratio: 77,872
100%
Откуда: Днепропетровск
ukraine.gif
Спасибо!!! отличный сборник!!!
Klaccik
Стаж: 7 лет 9 мес.
Сообщений: 8
Ratio: 1,026
100%
russia.gif
))) спасибо за торент!!!!!!!!!!!!!!!
cherryy
Стаж: 10 лет
Сообщений: 33
Ratio: 5,769
100%
russia.gif
спасибоо!!!!
ShorKann

Online
Стаж: 7 лет 7 мес.
Сообщений: 2910
Ratio: 48,898
100%
russia.gif
Как качество?

_________________
Сто грамм не стоп-кран – дернешь, не остановишься.
goodman2010
Стаж: 8 лет 10 мес.
Сообщений: 78
Ratio: 9,256
Поблагодарили: 110
100%
Откуда: Ярославль
russia.gif
"Мишкина каша" бы сюда еще)

_________________
Показать сообщения:   
Начать новую тему   Ответить на тему    Торрент-трекер NNM-Club -> Видео -> Отечественные Фильмы для детей Часовой пояс: GMT + 3
Страница 1 из 1