Классический форум-трекер
canvas not supported
Нас вместе: 4 077 899

PBS. Удивительные лягушки / Fabulous Frogs (2014) HDTVRip [H.264/720p]


 
 
RSS
Начать новую тему   Ответить на тему    Торрент-трекер NNM-Club -> Зарубежные TV-бренды -> PBS
Автор Сообщение
Отец Лоренцо ®
Uploader 1000+, Сталкер
Стаж: 7 лет 8 мес.
Сообщений: 4040
Ratio: 7393,141
Раздал: 1,0172 PB
Поблагодарили: 121761
100%
Откуда: Харьков, Украина
PBS. Удивительные лягушки / Fabulous Frogs (2014) HDTVRip [H.264/720p]
Режиссер / Телекомпания: Сэлли Томсон / PBS
Страна: Великобритания
Год выпуска: 2014
Жанр: Документальный, познавательный, фауна, земноводные

Описание: Сэр Дэвид Аттенборо отправит нас в путешествие по странному и удивительному миру лягушек, заставляющее по новому взглянуть на этих харизматичных, ярких и зачастую причудливых животных.

Продолжительность: 00:52:57

Перевод: Одноголосый закадровый (профессиональный, Владимир Курдов)

Видеокодек: MPEG-4 AVC/H.264
Битрейт видео: ~3 376 Кбит/с
Размер кадра: 1280 x 720
Качество видео: HDTVRip [720p]
Аудио:
1. [русский] AC3, 2.0 ch, 192 Кбит/с
2. [английский] AC3, 2.0 ch, 192 Кбит/с
Общее
Уникальный идентификатор : 238291284408953520085896554445253059779 (0xB3453B6533B5E7EE80AC65E2714F24C3)
Полное имя : D:\Релизы\PBS.Nature.Fabulous.Frogs.HDTVRip.720p.mkv
Формат : Matroska
Версия формата : Version 4 / Version 2
Размер файла : 1,42 Гбайт
Продолжительность : 52 м.
Общий поток : 3836 Кбит/сек
Название фильма : PBS: Nature - Fabulous Frogs @ AlexFilm
Дата кодирования : UTC 2014-07-20 18:51:24
Программа кодирования : mkvmerge v6.6.0 ('The Edge Of The In Between') built on Dec 1 2013 17:55:00
Библиотека кодирования : libebml v1.3.0 + libmatroska v1.4.1

Видео
Идентификатор : 1
Формат : AVC
Формат/Информация : Advanced Video Codec
Профиль формата : High@L4.1
Параметр CABAC формата : Да
Параметр ReFrames формата : 9 кадров
Идентификатор кодека : V_MPEG4/ISO/AVC
Продолжительность : 52 м.
Битрейт : 3376 Кбит/сек
Ширина : 1280 пикселей
Высота : 720 пикселей
Соотношение сторон : 16:9
Режим частоты кадров : Постоянный
Частота кадров : 25,000 кадров/сек
Цветовое пространство : YUV
Субдискретизация насыщенности : 4:2:0
Битовая глубина : 8 бит
Тип развёртки : Прогрессивная
Бит/(Пиксели*Кадры) : 0.147
Размер потока : 1,25 Гбайт (88%)
Библиотека кодирования : x264 core 142 r2431 ac76440
Настройки программы : cabac=1 / ref=9 / deblock=1:-3:-3 / analyse=0x3:0x113 / me=umh / subme=11 / psy=1 / psy_rd=1.00:0.00 / mixed_ref=1 / me_range=32 / chroma_me=1 / trellis=2 / 8x8dct=1 / cqm=0 / deadzone=21,11 / fast_pskip=0 / chroma_qp_offset=-2 / threads=6 / lookahead_threads=1 / sliced_threads=0 / nr=0 / decimate=0 / interlaced=0 / bluray_compat=0 / constrained_intra=0 / bframes=9 / b_pyramid=2 / b_adapt=2 / b_bias=0 / direct=3 / weightb=1 / open_gop=0 / weightp=2 / keyint=230 / keyint_min=23 / scenecut=40 / intra_refresh=0 / rc_lookahead=40 / rc=crf / mbtree=0 / crf=15.0 / qcomp=0.60 / qpmin=0 / qpmax=69 / qpstep=4 / vbv_maxrate=50000 / vbv_bufsize=62500 / crf_max=0.0 / nal_hrd=none / filler=0 / ip_ratio=1.40 / pb_ratio=1.30 / aq=2:0.80
Язык : English
Default : Да
Forced : Нет

Аудио #1
Идентификатор : 2
Формат : AC-3
Формат/Информация : Audio Coding 3
Расширение режима : CM (complete main)
Параметр Endianness формата : Big
Идентификатор кодека : A_AC3
Продолжительность : 52 м.
Вид битрейта : Постоянный
Битрейт : 192 Кбит/сек
Каналы : 2 канала
Расположение каналов : Front: L R
Частота : 48,0 КГц
Битовая глубина : 16 бит
Метод сжатия : С потерями
Размер потока : 72,7 Мбайт (5%)
Заголовок : Владимир Курдов для AlexFilm
Язык : Russian
Default : Да
Forced : Нет

Аудио #2
Идентификатор : 3
Формат : AC-3
Формат/Информация : Audio Coding 3
Расширение режима : CM (complete main)
Параметр Endianness формата : Big
Идентификатор кодека : A_AC3
Продолжительность : 52 м.
Вид битрейта : Постоянный
Битрейт : 192 Кбит/сек
Каналы : 2 канала
Расположение каналов : Front: L R
Частота : 48,0 КГц
Битовая глубина : 16 бит
Метод сжатия : С потерями
Размер потока : 72,7 Мбайт (5%)
Заголовок : Original
Язык : English
Default : Нет
Forced : Нет
Скриншоты:





Пожалуйста, не уходите с раздачи - помогите докачать другим. Если понравился релиз - жмите кнопку "Спасибо"! :приветствую:

Время раздачи: 24 / 7

"Fabulous Frogs / Удивительные лягушки" на NoNaMe Club
[NNM-Club.me]_PBS.Nature.Fabulous.Frogs.HDTVRip.720p.mkv.torrent
 Торрент: Платиновая раздача  Зарегистрирован
 
Скачать


Примагнититься
 Зарегистрирован:   20 Окт 2014 21:57:54
 Размер:   1,42 GB  (
 Рейтинг:   4,8 (Голосов: 49)
 Поблагодарили:   190
 Проверка:   Оформление проверено модератором 20 Окт 2014 21:58:26
Как cкачать  ·  Как раздать  ·  Правильно оформить  ·  Поднять ратио!  
amiga1200
Стаж: 8 лет
Сообщений: 612
Ratio: 5,27
Раздал: 5,641 TB
Поблагодарили: 35
55.53%
Откуда: C.-Петербург
russia.gif
везде, где присутствует Дэвид Аттенборо , однозначно надо смотреть, дедушка плохого про природу не покажет!
Показать сообщения:   
Начать новую тему   Ответить на тему    Торрент-трекер NNM-Club -> Зарубежные TV-бренды -> PBS Часовой пояс: GMT + 3
Страница 1 из 1