Классический форум-трекер
canvas not supported
Нас вместе: 4 076 745

Сказки Дональда Биссета. Сборник мультфильмов (1983-1987) [H.264] DVDRip [Девочка и дракон, Забытый день рождения, Малиновое варенье, Снегопад из холодильника, Урок музыки, Вреднюга, Крококот ]


 
 
RSS
Начать новую тему   Ответить на тему    Торрент-трекер NNM-Club -> Мультфильмы -> Отечественные Мультфильмы для детей
Автор Сообщение
denver7979 ®
Зам. Куратора Детского.
Модератор Видео.
RG Всё лучшее - детям!
 
Стаж: 8 лет 8 мес.
Сообщений: 7568
Ratio: 491,242
Раздал: 33,9 TB
Поблагодарили: 308716
100%
Откуда: Земля
ussr.gif
Сказки Дональда Биссета. Сборник мультфильмов (1983-1987) [H.264] DVDRip
Год выпуска: 1983-1987
Жанр: Детский, Кукольный

Вид субтитров: Отсутствуют

Режиссер: Юрий Трофимов
Персонажи: Алексей Баталов

Описание:
Цикл кукольных мультипликационных фильмов по мотивам сказок английского детского писателя Дональда Биссета (который также был художником и актером). Мультфильмы рассказывают о необыкновенных приключениях Дракоши, Девочки, Совенка и Кота.

Продолжительность: 01:08:39
Качество видео: DVDRip

Контейнер: MKV
Видео: AVC, 640x480 (4:3), 25.000 fps, 1 600 Kbps
Аудио: AC-3, 48.0 KHz, 2 ch, 192 Kbps, CBR
Видео
Идентификатор : 1
Формат : AVC
Формат/Информация : Advanced Video Codec
Профиль формата : High@L3.0
Параметр CABAC формата : Нет
Параметр ReFrames формата : 1 кадр
Идентификатор кодека : V_MPEG4/ISO/AVC
Битрейт : 1600 Кбит/сек
Ширина : 640 пикселей
Высота : 480 пикселей
Соотношение сторон : 4:3
Соотношение сторон в оригинале : 4:3
Частота кадров : 25,000 кадров/сек
Цветовое пространство : YUV
Субдискретизация насыщенности : 4:2:0
Битовая глубина : 8 бит
Тип развёртки : Прогрессивная
Бит/(Пиксели*Кадры) : 0.208
Размер потока : 110 Мбайт (87%)
Библиотека кодирования : x264 core 80 r1378+57 6f6b50a
Настройки программы : cabac=0 / ref=1 / deblock=1:0:0 / analyse=0x3:0x113 / me=hex / subme=7 / psy=1 / psy_rd=1.0:0.0 / mixed_ref=0 / me_range=16 / chroma_me=1 / trellis=0 / 8x8dct=1 / cqm=0 / deadzone=21,11 / fast_pskip=1 / chroma_qp_offset=-2 / threads=3 / sliced_threads=0 / nr=0 / decimate=1 / mbaff=0 / constrained_intra=0 / bframes=0 / wpredp=2 / keyint=250 / keyint_min=25 / scenecut=40 / rc_lookahead=40 / rc=abr / mbtree=1 / bitrate=1600 / ratetol=1.0 / qcomp=0.60 / qpmin=10 / qpmax=51 / qpstep=4 / ip_ratio=1.40 / aq=1:1.00

Аудио
Идентификатор : 2
Формат : AC-3
Формат/Информация : Audio Coding 3
Расширение режима : CM (complete main)
Идентификатор кодека : A_AC3
Продолжительность : 9 м. 41 с.
Вид битрейта : Постоянный
Битрейт : 192 Кбит/сек
Каналы : 2 канала
Расположение каналов : Front: L R
Частота : 48,0 КГц
Битовая глубина : 16 бит
Метод сжатия : С потерями
Размер потока : 13,3 Мбайт (11%)
Девочка и Дракон («Экран», 1983г.)

Продoлжительность: 00:09:45

Описание:
О дружбе симпатичной рыжеволосой девочки с невоспитанным, но приветливым Дракошей.



Скриншоты:

Малиновое варенье («Экран», 1983г.)

Продoлжительность: 00:09:55

Описание:
О том, как друзья решили наварить малинового варения, чтобы вылечить ангину.



Скриншоты:

Забытый день рождения («Экран», 1984г.)

Продoлжительность: 00:09:37

Описание:
О том, что произойдет, если забыть о таком важном празднике как День Рождения.



Скриншоты:

Крококот («Экран», 1985г.)

Продoлжительность: 00:09:41

Описание:
О том, как злой Зверолов похитил Дракошу, а друзья Дракоши создали удивительного Крококота — то ли кота, то ли крокодила...



Скриншоты:

Снегопад из холодильника («Экран», 1986г.)

Продoлжительность: 00:09:31

Описание:
О том, как снегопад из холодильника приключился у Дракоши и его друзей, которые очень обрадовались и слепили замечательного снеговика. А когда тот начал таять, его решили отправить на Луну, потому что там всегда холодно.



Скриншоты:

Урок музыки («Экран», 1986г.)

Продoлжительность: 00:10:06

Описание:
О том, как Маэстро гастролировал по городам с концертами, а бабушка Дракоши вспоминала музыку своего детства и делилась впечатлениями с внучком и его друзьями.



Скриншоты:


Вреднюга («Экран», 1987г.)

Продoлжительность: 00:10:03

Описание:
О том, как Дракоша с друзьями помешали Вреднюге смешать все цвета радуги, получив при этом цвет серой грязи. Этим смелым поступком троица спасла для мира разнообразие цветов, а Вреднюгу от своего скверного характера.



Скриншоты:
Скриншоты:




Время раздачи: с 11:00 до 01:00
Skazki Donal'da Bisseta. Sbornik mul'tfil'mov (1983-1987)_AVC_NNM-club.ru.torrent
 Торрент: Платиновая раздача  Зарегистрирован
 
Скачать


Примагнититься
 Зарегистрирован:   12 Май 2012 14:23:09
 Размер:   875 MB  (
 Рейтинг:   4,8 (Голосов: 54)
 Поблагодарили:   336
 Проверка:   Оформление проверено модератором 12 Май 2012 14:24:06
Как cкачать  ·  Как раздать  ·  Правильно оформить  ·  Поднять ратио!  
minimix33
Стаж: 7 лет
Сообщений: 7
Ratio: 42,098
11.14%
Спасибо за раздачу, у Биссета прекрасные сказки!!!
shadowfire2013
Стаж: 5 лет 11 мес.
Сообщений: 108
100%
согласен!
timmym
Стаж: 8 лет 4 мес.
Сообщений: 4
Ratio: 40,667
100%
russia.gif
дочь драконами увлеклась. "Приручить дракона" слишком много жестокостей для 3х летнего ребенка на мой взгляд. Я блин как старпер "в наше то время" мульты получше делали. добрее точно.
ammadin
Стаж: 4 года 3 мес.
Сообщений: 2
13.95%
Автору ОГРОМНОЕ СПАСИБИЩЕ!
Не думал, что найду где-нибудь эти мультфильмы.
Мультфильмы из моего детства, и не только из моего :)
Еще раз спасибо!!!

Не большая поправка по поводу оформления:

"Персонажи: Алексей Баталов"

Думаю следует написать:

"Текст читают: 1, 3-7 серии - Алексей Баталов / 2 Серия - Ролан Быков"
Показать сообщения:   
Начать новую тему   Ответить на тему    Торрент-трекер NNM-Club -> Мультфильмы -> Отечественные Мультфильмы для детей Часовой пояс: GMT + 3
Страница 1 из 1