Классический форум-трекер
canvas not supported
Нас вместе: 4 078 865

Джейк и пираты Нетландии / Jake and the Never Land Pirates (2011-2013) DVDRip [H.264] ( 23 серии из ?)


 
 
RSS
Начать новую тему   Ответить на тему    Торрент-трекер NNM-Club -> Мультфильмы -> Зарубежные Мультфильмы для детей
Автор Сообщение
starklad ®
RG Всё лучшее - детям!
Реставратор Детского, Uploader 100+
 
Стаж: 7 лет 10 мес.
Сообщений: 7923
Ratio: 12K
Поблагодарили: 198774
100%
Откуда: родом из СССР
ussr.gif
Джейк и пираты Нетландии / Jake and the Never Land Pirates (2011-2013) DVDRip
Год выпуска: 2011-2013
Жанр: Мультсериал, детский
Производство: США | CBS Paramount Network Television, Mercury Filmworks, Walt Disney Television Animation

Перевод: Дублированный
Вид субтитров: Вшитые отключаемые
Язык субтитров: Русский

Режиссер: Хауи Паркинс, Мики Коркоран

Описание фильма:
Эй, там, на палубе! Поднять паруса! Отчаливаем от берегов Нетландии. Вместе с Джейком, Иззи, Кабби и попугаем Скалли, на борту надежного корабля «Быстрый» тебя ждут приключения в болотных топях и волшебных джунглях. Помогай пиратам и ищи потерянные сокровища. Но остерегайся Капитана Крюка! Вместе со своим верным помощником, Мистером Сми, Крюк надеется утащить у ребят сокровища. Чтобы проучить его, понадобится сплоченная команда, смекалистый ум и даже волшебная пыльца фей


Дата мировой премьеры: 14 февраля 2011
Дата выхода DVD/Blu-Ray релиза: 19 февраля 2013, «Уолт Дисней Компани СНГ»

За рип большое спасибо avproh

Продолжительность: 20 х ~ 00:23:15 + 3 х ~ 00:48:00
Качество видео: DVDRip

Видео: MPEG-4 AVC/H.264, 720x572 (16:9), 25.000 fps, 1 813 Kbps (0.176 bit/pixel)
Аудио #1: AC-3 Dolby Digital, 48.0 KHz, 2 ch, 192 Kbps, CBR (Русский, дубляж)
Аудио #2: AC-3 Dolby Digital, 48.0 KHz, 2 ch, 192 Kbps, CBR (Английский, оригинал)
01. Hats Off to Hook!/Escape from Belch Mountain - Шляпы на крюк / Побег с бурлящей горы
02. Hide the Hideout!/The Old Shell Game - Прячем убежище! / Старинная игра в ракушки
03. Izzy's Pirate Puzzle/The Never Land Games - Пиратская головоломка Иззи! / Нетландские игры!
04. Off the Hook/Never Say Never! - Погоня! / Никогда не говори "Никогда"!
05. Cubby's Sunken Treasure/Cubby's Goldfish - Затонувшее сокровище Кабби! / Золотая рыбка Кабби
06. Happy Hookday!/No Returns! - Счастливого дня Крюка / Возврата нет!
07. The Sky's the Limit/Bucky Makes a Splash - Для нас преград нет! / "Быстрый" производит фурор!
08. Peter Pan returns - Питер Пэн вернулся
09. The Elephant Surprise!/Jake's Jungle Groove - Слоновий сюрприз / Танцы Джейка в джунглях
10. The Pirate Pup!/Pirate Rock! - Пиратский щенок! / Пиратский рок!
11. The Sword and the Stone/Jake's Home Run! - Сабля и камень / Победа Джейка!
12. The Pirate Princess/The Rainbow Wand - Принцесса пиратов / Радостная волшебная палочка
13. Mama Hook Knows Best/Pixie Dust Away! - Надо слушать маму / День пыльцы фей
14. Jake Saves Bucky - Джейк спасает Быстрый
15. Peter's Musical Pipes/The Never Night Star - Музыкальные дудочки Питера / Вечно Сияющая звезда
16. Captain Hook's Hooks/Mr. Smee's Pet- Крюки капитана Крюка / Питомец мистера Сми
17. Race - Around Rock!/Captain Hook is missing! - Скала Круговые гонки! / Капитан Крюк пропал!
18. Captain Hook's Lagoon/Undersea Bucky! - Лагуна капитана Крюка / Подводный Быстрый!
19. Never Land Rescue / Джейк спасает Нетландию
20. It's a Pirate Picnic! / Пиратский пикник / Ключ от скалы Череп
21. The Golden Twilight Treasure! / Сокровища золотых сумерек / Ура крокодилу
22. Jake and Sneaky Le Beak! / Джейк и подлая Ёклюв / Храбрый Кабби
23. Jake's Special Delivery / Почтовая служба Джейка / Скачки на морских коньках
Полное имя :\Djeyk.i.piraty.Netlandii.2011\01. Шляпы на крюк.Побег с бурлящей горы.mkv
Формат : Matroska
Версия формата : Version 4 / Version 2
Размер файла : 368 Мбайт
Продолжительность : 23 м.
Общий поток : 2200 Кбит/сек
Дата кодирования : UTC 2013-03-24 21:27:09
Программа кодирования : mkvmerge v6.1.0 ('Old Devil') built on Mar 2 2013 14:32:37
Библиотека кодирования : libebml v1.3.0 + libmatroska v1.4.0

Видео
Идентификатор : 1
Формат : AVC
Формат/Информация : Advanced Video Codec
Профиль формата : High@L4.1
Параметр CABAC формата : Да
Параметр ReFrames формата : 11 кадров
Идентификатор кодека : V_MPEG4/ISO/AVC
Продолжительность : 23 м.
Битрейт : 1813 Кбит/сек
Ширина : 720 пикселей
Высота : 572 пикселя
Соотношение сторон : 16:9
Частота кадров : 25,000 кадров/сек
Цветовое пространство : YUV
Субдискретизация насыщенности : 4:2:0
Битовая глубина : 8 бит
Тип развёртки : Прогрессивная
Бит/(Пиксели*Кадры) : 0.176
Размер потока : 296 Мбайт (81%)
Библиотека кодирования : x264 core 119 r2106 07efeb4
Настройки программы : cabac=1 / ref=11 / deblock=1:-2:-1 / analyse=0x3:0x113 / me=umh / subme=9 / psy=1 / psy_rd=1.00:0.20 / mixed_ref=1 / me_range=32 / chroma_me=1 / trellis=1 / 8x8dct=1 / cqm=0 / deadzone=21,11 / fast_pskip=0 / chroma_qp_offset=-3 / threads=6 / sliced_threads=0 / nr=0 / decimate=0 / interlaced=0 / bluray_compat=0 / constrained_intra=0 / bframes=8 / b_pyramid=2 / b_adapt=2 / b_bias=0 / direct=3 / weightb=1 / open_gop=0 / weightp=2 / keyint=250 / keyint_min=25 / scenecut=40 / intra_refresh=0 / rc_lookahead=60 / rc=2pass / mbtree=1 / bitrate=1813 / ratetol=1.0 / qcomp=0.60 / qpmin=0 / qpmax=69 / qpstep=4 / cplxblur=20.0 / qblur=0.5 / ip_ratio=1.40 / aq=1:1.00
Язык : English
Default : Да
Forced : Нет

Аудио #1
Идентификатор : 2
Формат : AC-3
Формат/Информация : Audio Coding 3
Профиль формата : Dolby Digital
Расширение режима : CM (complete main)
Параметр Endianness формата : Big
Идентификатор кодека : A_AC3
Продолжительность : 23 м.
Вид битрейта : Постоянный
Битрейт : 192 Кбит/сек
Каналы : 2 канала
Расположение каналов : Front: L R
Частота : 48,0 КГц
Битовая глубина : 16 бит
Метод сжатия : С потерями
Размер потока : 32,1 Мбайт (9%)
Язык : Russian
Default : Да
Forced : Нет

Аудио #2
Идентификатор : 3
Формат : AC-3
Формат/Информация : Audio Coding 3
Профиль формата : Dolby Digital
Расширение режима : CM (complete main)
Параметр Endianness формата : Big
Идентификатор кодека : A_AC3
Продолжительность : 23 м.
Вид битрейта : Постоянный
Битрейт : 192 Кбит/сек
Каналы : 2 канала
Расположение каналов : Front: L R
Частота : 48,0 КГц
Битовая глубина : 16 бит
Метод сжатия : С потерями
Размер потока : 32,1 Мбайт (9%)
Язык : English
Default : Нет
Forced : Нет

Текст
Идентификатор : 4
Формат : UTF-8
Идентификатор кодека : S_TEXT/UTF8
Идентификатор кодека/Информация : UTF-8 Plain Text
Язык : Russian
Default : Нет
Forced : Нет
Скриншоты:




Все релизы мультфильма в Клубе


Смотрите также другие мои раздачи
Время раздачи: с 08:00 до 23:00 до первых 10-ти скачавших, далее по возможности
[NNM-Club.me]_Djeyk.i.piraty.Netlandii.2011.torrent
 Торрент: Платиновая раздача  Зарегистрирован
 
Скачать


Примагнититься
 Зарегистрирован:   13 Мар 2014 20:29:51
 Размер:   9,32 GB  (
 Рейтинг:   4,9 (Голосов: 85)
 Поблагодарили:   380
 Проверка:   Оформление проверено модератором 13 Мар 2014 20:53:20
Как cкачать  ·  Как раздать  ·  Правильно оформить  ·  Поднять ратио!  
Загрузка...
dshuv
Uploader 300+
Стаж: 9 лет 7 мес.
Сообщений: 63
Ratio: 3149,632
Поблагодарили: 251
100%
Откуда: родом из детства
ussr.gif
Доброго дня, starklad! Помогу с раздачей!

_________________
...Оптимист даже на кладбище видит сплошные плюсы...
starklad ®
RG Всё лучшее - детям!
Реставратор Детского, Uploader 100+
 
Стаж: 7 лет 10 мес.
Сообщений: 7923
Ratio: 12K
Поблагодарили: 198774
100%
Откуда: родом из СССР
ussr.gif
dshuv
Спасибо!
starklad ®
RG Всё лучшее - детям!
Реставратор Детского, Uploader 100+
 
Стаж: 7 лет 10 мес.
Сообщений: 7923
Ratio: 12K
Поблагодарили: 198774
100%
Откуда: родом из СССР
ussr.gif
Скриншоты:


Код:

[align=center][b]Скриншоты:[/b]
[url=http://s7.hostingkartinok.com/uploads/images/2014/04/7ad5520fde0bd6586a02d36e9714ad88.png][img]http://s6.hostingkartinok.com/uploads/images/2014/04/5e5615f5fa5c4e15ad83ae35eac7220a.jpg[/img][/url]  [url=http://s7.hostingkartinok.com/uploads/images/2014/04/e2cba98035e2a3cc08315af8924d4f50.png][img]http://s3.hostingkartinok.com/uploads/images/2014/04/d5697520ac6b35f1b7a9167cf94e03fe.jpg[/img][/url]  [url=http://s3.hostingkartinok.com/uploads/images/2014/04/48109a70100d688b4a4b51a068f6bcc0.png][img]http://s3.hostingkartinok.com/uploads/images/2014/04/71b2ab02ad62675103489e3eec115204.jpg[/img][/url]  [url=http://s6.hostingkartinok.com/uploads/images/2014/04/5f56fa51023294e2f6110931837ad5f4.png][img]http://s4.hostingkartinok.com/uploads/images/2014/04/874626b0c2f7311a76bb4e0dda0f75ea.jpg[/img][/url]

[url=http://s4.hostingkartinok.com/uploads/images/2014/04/12c1a6ea55e8815ee3a89d363a088ea0.png][img]http://s7.hostingkartinok.com/uploads/images/2014/04/722ce9d636811c100567878d7749464a.jpg[/img][/url]  [url=http://s3.hostingkartinok.com/uploads/images/2014/04/0cf5452d9f3703c9e6f1a259d4074a6e.png][img]http://s6.hostingkartinok.com/uploads/images/2014/04/aa9618fe0ea94b9f2e479468a7d2fc50.jpg[/img][/url]  [url=http://s3.hostingkartinok.com/uploads/images/2014/04/bc809bd11bffb800675f2ec3cef214ed.png][img]http://s3.hostingkartinok.com/uploads/images/2014/04/e538589ef52bbb65c8757893abbc49cb.jpg[/img][/url]  [url=http://s4.hostingkartinok.com/uploads/images/2014/04/c29f68137b6fdfda2e3c0cde5c47928b.png][img]http://s4.hostingkartinok.com/uploads/images/2014/04/0593df7de09179408dbb44d9383082df.jpg[/img][/url][/align]
Apis Zii
Стаж: 8 лет 6 мес.
Сообщений: 10
Ratio: 6,511
100%
Отличный мульт для пацанов от 4х лет))) проверено!

_________________
Смотри!..
Показать сообщения:   
Начать новую тему   Ответить на тему    Торрент-трекер NNM-Club -> Мультфильмы -> Зарубежные Мультфильмы для детей Часовой пояс: GMT + 3
Страница 1 из 1