Классический форум-трекер
canvas not supported
Нас вместе: 4 102 682

Доктор Хаус / HOUSE M.D. (сезоны 1 -7, 2004-2011) WEB-DLRip [320p] iPod


 
 
RSS
Начать новую тему   Ответить на тему    Торрент-трекер NNM-Club -> Аудио и Видео -> Зарубежное видео для устройств Apple
Автор Сообщение
gekka ®
RG Apple
 
Стаж: 13 лет 2 мес.
Сообщений: 2123
Ratio: 96,242
Поблагодарили: 132017
100%
Откуда: Москва, Дорогомилово
ussr.gif
Доктор Хаус / HOUSE M.D. (сезоны 1 -7, 2004-2011) [320p]
Русское название: Доктор Хаус
Оригинальное название: HOUSE M.D.
Страна: США
Год выпуска: 2004-2011
Жанр: драма, детектив
Количество сезонов: 7
Количество серий: 1-й(22), 2-й(24), 3-й(24), 4-й(16), 5-й(24), 6-й(22), 7-й(23)

Описание:
Сериал House, M.D. рассказывает о команде врачей, которые должны правильно поставить диагноз пациенту и спасти его. В принципе сериал представляет из себя вариацию схемы «врач как детектив», но в отличие от остальных сериалов, где врачи обследуют уже мертвого пациента, в House, M.D. больной находится еще в живых.

Возглавляет команду доктор Грегори Хаус, который ходит с тростью после того, как его мышечный инфаркт в правой ноге слишком поздно правильно диагностировали. Как врач Хаус просто гений, но сам не отличается проникновенностью в общении с больными и с удовольствием избегает их, если только есть возможность. Он сам всё время проводит в борьбе с собственной болью, а трость в его руке только подчеркивает его жесткую, ядовитую манеру общения. Порой его поведение можно назвать почти бесчеловечным, и при этом он прекрасный врач, обладающий нетипичным умом и безупречным инстинктом, что снискало ему глубокое уважение. Будучи инфекционистом, он ещё и замечательный диагност, который любит разгадывать медицинские загадки, чтобы спасти кому-то жизнь. Если бы все было по его воле, то Хаус лечил бы больных не выходя из своего кабинета.

Режиссер: Грег Яйтанс, Питер О’Фаллон, Мэтт Сакман
Актеры: Хью Лори, Роберт Шон Леонард, Джесси Спенсер, Лиза Эдельштейн, Омар Эппс, Дженнифер Моррисон, Боббин Бергсторм, Оливия Уайлд, Питер Джекобсон, Кэл Пенн и другие.

Дата мировой премьеры: 16 ноября 2004
Дата премьеры РФ: 27 августа 2007
Релиз на DVD: 7 апреля 2009, «Юниверсал Пикчерс Рус»



Продолжительность: ~ 00:45:00
Перевод: Профессиональный многоголосый закадровый
Субтитры: Английские, Русские

Видеокодек: MPEG-4 QuickTime H.264 23,976 fps 16:9
Битрейт видео: ~600 kbps
Размер кадра: 576х320 [320p]
Качество видео: WEB DL

Аудиокодек:
AAC Russian ~128 kbps 2 ch 48 kHz (Профессиональный многоголосый закадровый, LostFilm (Студия "Кравец"))
AAC Russian ~128 kbps 2 ch 48 kHz (Профессиональный многоголосый закадровый, NovaFilm (т/к "Домашний"))
AAC English ~128 kbps 2 ch 48 kHz
Общее
Полное имя : Z:\House M.D. (320p)\Season 1\House.M.D.S01E03.320p.WEB-DLRip.Stroller.mov
Формат : MPEG-4
Профиль формата : QuickTime
Идентификатор кодека : qt
Размер файла : 313 Мбайт
Продолжительность : 44 м.
Режим общего битрейта : Переменный
Общий поток : 991 Кбит/сек
Название фильма : Бритва Оккама (Occam's Razor)
Альбом : Доктор Хаус (House M.D.)
Трек/Положение : 3
Трек/Всего : 22
Исполнитель : Доктор Хаус (House M.D.)
Жанр : Drama
Дата записи : UTC 2006-09-19 07:00:00
Дата кодирования : UTC 2011-08-10 19:20:15
Дата пометки : UTC 2011-08-10 19:20:45
Программа кодирования : HandBrake 0.9.5 2011010300
Библиотека кодирования : Apple QuickTime 7.6.9
Правообладатель : Stroller
Обложка : Yes
Примечание : © by RG Apple from  .org
com.apple.quicktime.player.movie.audio.m : (Binary)
iTunEXTC : us-tv|TV-14|500|
iTunMOVI : <?xml version="1.0" encoding="UTF-8"?> / <!DOCTYPE plist PUBLIC "-//Apple//DTD PLIST 1.0//EN" "http://www.apple.com/DTDs/PropertyList-1.0.dtd"> / <plist version="1.0"> / <dict> / <key>cast</key> / <array> / <dict> / <key>name</key> / <string>Хью Лори</string> / </dict> / <dict> / <key>name</key> / <string>Лиза Эдельштейн</string> / </dict> / <dict> / <key>name</key> / <string>Омар Эппс</string> / </dict> / <dict> / <key>name</key> / <string>Роберт Шон Леонард</string> / </dict> / <dict> / <key>name</key> / <string>Дженнифер Моррисон</string> / </dict> / <dict> / <key>name</key> / <string>Джесси Спенсер и др.</string> / </dict> / </array> / <key>directors</key> / <array> / <dict> / <key>name</key> / <string>Грег Яйтанс</string> / </dict> / <dict> / <key>name</key> / <string>Питер О’Фаллон</string> / </dict> / <dict> / <key>name</key> / <string>Мэтт Сакман</string> / </dict> / </array> / <key>producers</key> / <array> / <dict> / <key>name</key> / <string>Геррит Ван Дер Меер</string> / </dict> / <dict> / <key>name</key> / <string>Гаррет Лернер</string> / </dict> / <dict> / <key>name</key> / <string>Аллен Маршалл Палмер</string> / </dict> / </array> / <key>screenwriters</key> / <array> / <dict> / <key>name</key> / <string>Дэвид Шор</string> / </dict> / <dict> / <key>name</key> / <string>Сара Хесс</string> / </dict> / <dict> / <key>name</key> / <string>Дэвид Хоселтон</string> / </dict> / </array> / </dict> / </plist>
tvsh : Доктор Хаус (House M.D.)
tvnn : FOX
tven : Бритва Оккама (Occam's Razor)
tvsn : 1
tves : 3
desc : Сериал House, M.D. рассказывает о команде врачей, которые должны правильно поставить диагноз пациенту и спасти его.
ldes : Сериал House, M.D. рассказывает о команде врачей, которые должны правильно поставить диагноз пациенту и спасти его. В принципе сериал представляет из себя вариацию схемы «врач как детектив», но в отличие от остальных сериалов, где врачи обследуют уже мертвого пациента, в House, M.D. больной находится еще в живых.
stik : 10

Видео
Идентификатор : 1
Формат : AVC
Формат/Информация : Advanced Video Codec
Профиль формата : Baseline@L2.1
Параметр CABAC формата : Нет
Параметр ReFrames формата : 3 кадра
Идентификатор кодека : avc1
Идентификатор кодека/Информация : Advanced Video Coding
Продолжительность : 44 м.
Битрейт : 597 Кбит/сек
Ширина : 576 пикселей
Высота : 320 пикселей
Соотношение сторон : 16:9
Режим частоты кадров : Переменный
Частота кадров : 23,976 кадра/сек
Минимальная частота кадров : 23,810 кадра/сек
Максимальная частота кадров : 24,390 кадра/сек
Цветовое пространство : YUV
Субдискретизация насыщенности : 4:2:0
Битовая глубина : 8 бит
Тип развёртки : Прогрессивная
Бит/(Пиксели*Кадры) : 0.135
Размер потока : 188 Мбайт (60%)
Заголовок : Обработчик видео Apple / Обработчик псевдонимов Apple
Библиотека кодирования : x264 core 112
Настройки программы : cabac=0 / ref=3 / deblock=1:0:0 / analyse=0x1:0x111 / me=umh / subme=6 / psy=1 / psy_rd=1.00:0.00 / mixed_ref=1 / me_range=16 / chroma_me=1 / trellis=0 / 8x8dct=0 / cqm=0 / deadzone=21,11 / fast_pskip=1 / chroma_qp_offset=-2 / threads=3 / sliced_threads=0 / nr=0 / decimate=1 / interlaced=0 / constrained_intra=0 / bframes=0 / weightp=0 / keyint=240 / keyint_min=23 / scenecut=40 / intra_refresh=0 / rc_lookahead=40 / rc=crf / mbtree=1 / crf=20.5 / qcomp=0.60 / qpmin=3 / qpmax=51 / qpstep=4 / ip_ratio=1.40 / aq=1:1.00
Дата кодирования : UTC 2011-08-08 04:40:10
Дата пометки : UTC 2011-08-10 19:20:45
Основные цвета : BT.709-5, BT.1361, IEC 61966-2-4, SMPTE RP177
Характеристики трансфера : BT.709-5, BT.1361
Коэффициенты матрицы : BT.709-5, BT.1361, IEC 61966-2-4 709, SMPTE RP177

Аудио #1
Идентификатор : 2
Формат : AAC
Формат/Информация : Advanced Audio Codec
Профиль формата : LC
Идентификатор кодека : 40
Продолжительность : 44 м.
Вид битрейта : Переменный
Битрейт : 128 Кбит/сек
Максимальный битрейт : 251 Кбит/сек
Каналы : 2 канала
Расположение каналов : Front: L R
Частота : 48,0 КГц
Метод сжатия : С потерями
Размер потока : 40,4 Мбайт (13%)
Заголовок : Обработчик звука Apple / Обработчик псевдонимов Apple
Язык : 32
Дата кодирования : UTC 2011-08-08 04:40:10
Дата пометки : UTC 2011-08-10 19:20:45

Аудио #2
Идентификатор : 3
Формат : AAC
Формат/Информация : Advanced Audio Codec
Профиль формата : LC
Идентификатор кодека : 40
Продолжительность : 44 м.
Вид битрейта : Переменный
Битрейт : 128 Кбит/сек
Максимальный битрейт : 155 Кбит/сек
Каналы : 2 канала
Расположение каналов : Front: L R
Частота : 48,0 КГц
Метод сжатия : С потерями
Размер потока : 40,4 Мбайт (13%)
Заголовок : Обработчик звука Apple / Обработчик псевдонимов Apple
Язык : 32
Дата кодирования : UTC 2011-08-08 04:40:10
Дата пометки : UTC 2011-08-10 19:20:45

Аудио #3
Идентификатор : 4
Формат : AAC
Формат/Информация : Advanced Audio Codec
Профиль формата : LC
Идентификатор кодека : 40
Продолжительность : 44 м.
Вид битрейта : Переменный
Битрейт : 128 Кбит/сек
Максимальный битрейт : 229 Кбит/сек
Каналы : 2 канала
Расположение каналов : Front: L R
Частота : 48,0 КГц
Метод сжатия : С потерями
Размер потока : 40,4 Мбайт (13%)
Заголовок : Обработчик звука Apple / Обработчик псевдонимов Apple
Язык : English
Дата кодирования : UTC 2011-08-08 04:40:10
Дата пометки : UTC 2011-08-10 19:20:45

Текст #1
Идентификатор : 5
Формат : Timed text
Режим смешивания : sbtl
Идентификатор кодека : tx3g
Продолжительность : 42 м.
Source_Duration/String : 42 м.
Вид битрейта : Переменный
Битрейт : 178 бит/сек
Размер потока : 56,0 Кбайт (0%)
Source_StreamSize/String : 56,0 Кбайт
Заголовок : Обработчик субтитров Apple / Обработчик псевдонимов Apple
Язык : 32
Дата кодирования : UTC 2011-08-10 19:17:57
Дата пометки : UTC 2011-08-10 19:20:45

Текст #2
Идентификатор : 6
Формат : Timed text
Режим смешивания : sbtl
Идентификатор кодека : tx3g
Продолжительность : 43 м.
Вид битрейта : Переменный
Битрейт : 97 бит/сек
Размер потока : 30,5 Кбайт (0%)
Заголовок : Обработчик субтитров Apple / Обработчик псевдонимов Apple
Язык : English
Дата кодирования : UTC 2011-08-10 19:18:16
Дата пометки : UTC 2011-08-10 19:20:45

Список сезонов/серий
Скриншоты:



Время раздачи: 24/7 (до первых 4-х скачавших)
Для воспроизведения на IPad/IPhone. При добавлении в iTunes (IPad/IPhone), файлы располагаются в разделе Телешоу, прописаны теги.
[NNM-Club.ru]_House M.D. (320p).torrent
 Торрент: Платиновая раздача  Зарегистрирован
 
Скачать


 Зарегистрирован:   16 Фев 2012 14:10:39
 Размер:   42,9 GB  (
 Рейтинг:   4,6 (Голосов: 31)
 Поблагодарили:   91
 Проверка:   Оформление проверено модератором 25 Фев 2012 07:39:56
Как cкачать  ·  Как раздать  ·  Правильно оформить  ·  Поднять ратио!  
war
Uploader 1000+
Стаж: 13 лет 4 мес.
Сообщений: 1187
Ratio: 442,959
100%
ussr.gif
gekka Хорошо бы добавить 8 сезон, на известном трекере есть полная раздача
agony
Стаж: 9 лет 6 мес.
Сообщений: 3
Ratio: 11,915
100%
ukraine.gif
Помогите скачать, пожалуйста!
Показать сообщения:   
Начать новую тему   Ответить на тему    Торрент-трекер NNM-Club -> Аудио и Видео -> Зарубежное видео для устройств Apple Часовой пояс: GMT + 3
Страница 1 из 1