Классический форум-трекер
canvas not supported
Нас вместе: 4 078 930

Мельница - Ангелофрения (2012) [FLAC|Lossless]<Folk Rock>


 
 
RSS
Начать новую тему   Ответить на тему    Торрент-трекер NNM-Club -> Other Styles -> Folk (Lossless)
Автор Сообщение
Shuran80 ®
Свободный релизер
 
Стаж: 10 лет 6 мес.
Сообщений: 3201
Ratio: 1177,36
Раздал: 86,83 TB
Поблагодарили: 187663
100%
Откуда: Ленинград
ussr.gif
Мельница - Ангелофрения (2012)
Год: 2012
Жанр: Folk Rock
Страна: Россия
Продолжительность: 00:46:54

Издатель: Navigator Records
Номер по каталогу: NR 0812 CDp
Кодек: FLAC
Битрейт: Lossless

Трек лист:
01. Одной крови (3:54)
02. Дороги (3:09)
03. Неперелетная (5:03)
04. Контрабанда (4:05)
05. Река (4:13)
06. Гори, Москва! (4:34)
07. Не успеваю (4:36)
08. Поезд на мемфис (4:48)
09. Что ты знаешь (4:31)
10. Ангел (4:04)
11. Баллада о борьбе (3:57)
Ме́льница — российская фолк-рок-группа из Москвы. Основана 15 октября 1999 года. Группа «Мельница» играет акустическую и электроакустическую музыку. Основным вокалистом в группе является солистка Хелависа.

Музыкальное направление, в котором работает группа, принято относить к фолк-року, однако в числе творческих ориентиров музыкантов неизменно оказываются такие группы и исполнители, как Led Zeppelin, Jefferson Airplane, Дженис Джоплин, The Rolling Stones. Тексты и музыка песен основываются на народных (русских, кельтских, скандинавских, балканских), а также средневековых балладах, миннезангах, былинах, сказаниях.

Оф. сайт группы
Код:

Exact Audio Copy V1.0 beta 3 from 29. August 2011

Отчёт EAC об извлечении, выполненном 23. июля 2012, 14:15

Мельница / Мельница - Ангелофрения

Дисковод: Optiarc BD RW BD-5300S   Adapter: 3  ID: 0

Режим чтения                 : Достоверность
Использование точного потока : Да
Отключение кэша аудио        : Да
Использование указателей C2  : Нет

Коррекция смещения при чтении                     : 6
Способность читать области Lead-in и Lead-out     : Нет
Заполнение пропущенных сэмплов тишиной            : Да
Удаление блоков с тишиной в начале и конце        : Нет
При вычислениях CRC использовались нулевые сэмплы : Да
Интерфейс                                         : Встроенный Win32-интерфейс для Win NT/2000
Обработка зазоров                                 : Добавлено к предыдущему треку

Выходной формат          : Пользовательский кодировщик
Выбранный битрейт        : 896 kBit/s
Качество                 : Высокий
Добавление ID3-тега      : Нет
Утилита сжатия           : C:\Program Files (x86)\FLAC\flac.exe
Дополнительные параметры :   -V -8 -T "Genre=%genre%" -T "Artist=%artist%" -T "Title=%title%" -T "Album=%albumtitle%" -T "Date=%year%" -T "Tracknumber=%tracknr%" -T "Comment=%comment%" %source%

TOC извлечённого CD

     Трек |   Старт  | Длительность | Начальный сектор | Конечный сектор
    ---------------------------------------------------------------------
       1  |  0:00.00 |    3:54.14   |           0      |      17563
       2  |  3:54.14 |    3:09.04   |       17564      |      31742
       3  |  7:03.18 |    5:03.13   |       31743      |      54480
       4  | 12:06.31 |    4:04.56   |       54481      |      72836
       5  | 16:11.12 |    4:12.74   |       72837      |      91810
       6  | 20:24.11 |    4:34.21   |       91811      |     112381
       7  | 24:58.32 |    4:36.18   |      112382      |     133099
       8  | 29:34.50 |    4:47.66   |      133100      |     154690
       9  | 34:22.41 |    4:31.12   |      154691      |     175027
      10  | 38:53.53 |    4:04.15   |      175028      |     193342
      11  | 42:57.68 |    3:56.50   |      193343      |     211092

Трек  1

     Имя файла H:\МЕЛЬНИЦА\Мельница - Ангелофрения\01 Одной крови.wav

     Длина предзазора  0:00:02.00

     Пиковый уровень 100.0 %
     Скорость извлечения 5.1 X
     Качество трека 100.0 %
     CRC теста 54BB7976
     CRC копии 54BB7976
     Копирование... OK

Трек  2

     Имя файла H:\МЕЛЬНИЦА\Мельница - Ангелофрения\02 Дороги.wav

     Длина предзазора  0:00:01.74

     Пиковый уровень 100.0 %
     Скорость извлечения 5.4 X
     Качество трека 100.0 %
     CRC теста 802201F3
     CRC копии 802201F3
     Копирование... OK

Трек  3

     Имя файла H:\МЕЛЬНИЦА\Мельница - Ангелофрения\03 Неперелетная.wav

     Длина предзазора  0:00:01.74

     Пиковый уровень 100.0 %
     Скорость извлечения 6.4 X
     Качество трека 100.0 %
     CRC теста C71878DF
     CRC копии C71878DF
     Копирование... OK

Трек  4

     Имя файла H:\МЕЛЬНИЦА\Мельница - Ангелофрения\04 Контрабанда.wav

     Длина предзазора  0:00:01.74

     Пиковый уровень 100.0 %
     Скорость извлечения 6.8 X
     Качество трека 100.0 %
     CRC теста C6F10A4A
     CRC копии C6F10A4A
     Копирование... OK

Трек  5

     Имя файла H:\МЕЛЬНИЦА\Мельница - Ангелофрения\05 Река.wav

     Длина предзазора  0:00:01.74

     Пиковый уровень 100.0 %
     Скорость извлечения 6.5 X
     Качество трека 99.9 %
     CRC теста 1AFF2B93
     CRC копии 1AFF2B93
     Копирование... OK

Трек  6

     Имя файла H:\МЕЛЬНИЦА\Мельница - Ангелофрения\06 Гори, Москва!.wav

     Длина предзазора  0:00:01.74

     Пиковый уровень 100.0 %
     Скорость извлечения 7.8 X
     Качество трека 100.0 %
     CRC теста 56CE3AA9
     CRC копии 56CE3AA9
     Копирование... OK

Трек  7

     Имя файла H:\МЕЛЬНИЦА\Мельница - Ангелофрения\07 Не успеваю.wav

     Длина предзазора  0:00:01.74

     Пиковый уровень 100.0 %
     Скорость извлечения 7.4 X
     Качество трека 99.9 %
     CRC теста BCFE87EF
     CRC копии BCFE87EF
     Копирование... OK

Трек  8

     Имя файла H:\МЕЛЬНИЦА\Мельница - Ангелофрения\08 Поезд на мемфис.wav

     Длина предзазора  0:00:01.74

     Пиковый уровень 100.0 %
     Скорость извлечения 8.8 X
     Качество трека 100.0 %
     CRC теста 4924258E
     CRC копии 4924258E
     Копирование... OK

Трек  9

     Имя файла H:\МЕЛЬНИЦА\Мельница - Ангелофрения\09 Что ты знаешь.wav

     Длина предзазора  0:00:01.74

     Пиковый уровень 100.0 %
     Скорость извлечения 9.1 X
     Качество трека 100.0 %
     CRC теста B95870C1
     CRC копии B95870C1
     Копирование... OK

Трек 10

     Имя файла H:\МЕЛЬНИЦА\Мельница - Ангелофрения\10 Ангел.wav

     Длина предзазора  0:00:01.74

     Пиковый уровень 100.0 %
     Скорость извлечения 9.4 X
     Качество трека 100.0 %
     CRC теста 5B16F1D4
     CRC копии 5B16F1D4
     Копирование... OK

Трек 11

     Имя файла H:\МЕЛЬНИЦА\Мельница - Ангелофрения\11 Баллада о борьбе.wav

     Длина предзазора  0:00:01.74

     Пиковый уровень 100.0 %
     Скорость извлечения 9.5 X
     Качество трека 100.0 %
     CRC теста 265138CF
     CRC копии 265138CF
     Копирование... OK

Ошибок не произошло

Конец отчёта

---- CUETools DB Plugin V2.1.3

[CTDB TOCID: MZC5DneIOzWVoB9wxYc3BzoTFGU-] found, Submit result: already submitted
[f9fa8ae7] (3/3) Accurately ripped

==== Контрольная сумма отчёта DF041B336589E98FA2A2F2C92837F6C0E173F6FEFE3142FEC658529B0ED4E4E4 ====
Код:

-----------------------

DON'T MODIFY THIS FILE

-----------------------

PERFORMER: auCDtect Task Manager, ver. 1.5.1RC4 build 1.5.1.5
Copyright (c) 2008-2010 y-soft. All rights reserved
http://y-soft.org

ANALYZER: auCDtect: CD records authenticity detector, version 0.8.2
Copyright (c) 2004 Oleg Berngardt. All rights reserved.
Copyright (c) 2004 Alexander Djourik. All rights reserved.

FILE: 11 Баллада о борьбе.flac
  Size: 27629526 Hash: 2990A167758D16B503352C02B2F7B26E Accuracy: -m0
  Conclusion: CDDA 100%
  Signature: 2DA322C5418B47D7A4E66A0A2F2CE8E2335B0459
FILE: 10 Ангел.flac
  Size: 30710198 Hash: DDE00D32F8E81BF10871277041FD02BB Accuracy: -m0
  Conclusion: CDDA 99%
  Signature: A9C86A8177480E10DE234B9074F92FBCB4B3B91B
FILE: 09 Что ты знаешь.flac
  Size: 34617321 Hash: 9C7DCCF07EFFCA14D6F6D38A57BF7896 Accuracy: -m0
  Conclusion: CDDA 100%
  Signature: D967EF3933B0A363C1A98260E2D126EF304207C1
FILE: 08 Поезд на мемфис.flac
  Size: 34556675 Hash: 507440D06B7F86D3464595CC1E8A0117 Accuracy: -m0
  Conclusion: CDDA 100%
  Signature: D4560659A296240451201FCB58BA7F3662821334
FILE: 07 Не успеваю.flac
  Size: 33826142 Hash: 233007BA780C84DA014D1EDE09ECFBC0 Accuracy: -m0
  Conclusion: CDDA 100%
  Signature: 51CACADC65311EBCF31E41446456CDDCFD046C9F
FILE: 06 Гори, Москва!.flac
  Size: 35384921 Hash: 906D435B08C81478892E627B3864855F Accuracy: -m0
  Conclusion: CDDA 99%
  Signature: 86E23FE128F180BDBA7C6AB45EE2D6136FA6362B
FILE: 05 Река.flac
  Size: 29496936 Hash: 717489D9E3817F636EA62395331BC36D Accuracy: -m0
  Conclusion: CDDA 100%
  Signature: 72563589C2543E13C064C3BDF9E513C3B48B1401
FILE: 04 Контрабанда.flac
  Size: 30256769 Hash: 176EC235D7E8C3B4C74BD87D02B76EC0 Accuracy: -m0
  Conclusion: CDDA 100%
  Signature: CF71FF7A8CCED9B120676642CA34631D7FD37402
FILE: 03 Неперелетная.flac
  Size: 37603261 Hash: D124DD79F9B6D2BACB70A3828862DC6A Accuracy: -m0
  Conclusion: CDDA 100%
  Signature: 3C5E8D0D16D69D9DE861BBCA87FDD058E425CF3D
FILE: 02 Дороги.flac
  Size: 22835110 Hash: 5DA32C5BF0DB33ED535EEB094266E102 Accuracy: -m0
  Conclusion: CDDA 99%
  Signature: 16EF0EAE685E5F455C25A87FAB60471EA8E1C8DF
FILE: 01 Одной крови.flac
  Size: 28397702 Hash: 54D5FD9C53E6217CA62FEA8DCD94F3B7 Accuracy: -m0
  Conclusion: CDDA 100%
  Signature: ACC55CA5A1841A38EA58D41C4D2D62B71872783F
За предоставленный материал спасибо DDSurok

Время раздачи: Обычно с 19:00 до 00:00 :спит:
[NNM-Club.ru]_Mel'nitsa - Angelofreniya (2012) FLAC.torrent
 Торрент: Платиновая раздача  Зарегистрирован
 
Скачать


 Зарегистрирован:   18 Авг 2012 11:48:47
 Размер:   339 MB  (
 Рейтинг:   4,8 (Голосов: 69)
 Поблагодарили:   327
 Проверка:   Оформление проверено модератором 19 Авг 2012 18:17:03
Как cкачать  ·  Как раздать  ·  Правильно оформить  ·  Поднять ратио!  

_________________
Внимание! Временно отсутствую на своих раздачах. Просьба понять и простить. )
Загрузка...
D0G
Стаж: 9 лет 10 мес.
Сообщений: 2625
Ratio: 18,555
Раздал: 34,02 TB
Поблагодарили: 103490
100%
pirates.png
Душа отдыхает... =) Спасибо :клево:

_________________
Shuran80 ®
Свободный релизер
 
Стаж: 10 лет 6 мес.
Сообщений: 3201
Ratio: 1177,36
Раздал: 86,83 TB
Поблагодарили: 187663
100%
Откуда: Ленинград
ussr.gif
D0G писал(а):
Душа отдыхает... Спасибо

Пожалуйста. Очень неожиданное, современное роковое звучание группы.

_________________
Внимание! Временно отсутствую на своих раздачах. Просьба понять и простить. )
D0G
Стаж: 9 лет 10 мес.
Сообщений: 2625
Ratio: 18,555
Раздал: 34,02 TB
Поблагодарили: 103490
100%
pirates.png
На Север
=) :подмигивание:

_________________
legion999
Стаж: 7 лет 7 мес.
Сообщений: 52
Ratio: 59,802
100%
Высоцкого перепевает ,Баллада о борьбе . Интересно . =)
Lliske
Стаж: 8 лет 10 мес.
Сообщений: 17
Ratio: 7,944
100%
russia.gif
Огромное спасибо за раздачу! Красота, да и только =)
Amrak
Стаж: 9 лет 2 мес.
Сообщений: 41
Ratio: 22,694
Раздал: 4,543 TB
100%
russia.gif
Жена в восторге!

_________________
ЦП DualCore Intel Core i5, 2800 MHz (28 x 100)
Системная память 8192 Мб (DDR3-1333 DDR3 SDRAM)
Видеоадаптер NVIDIA GeForce GT 540M (2108 Мб)
Показать сообщения:   
Начать новую тему   Ответить на тему    Торрент-трекер NNM-Club -> Other Styles -> Folk (Lossless) Часовой пояс: GMT + 3
Страница 1 из 1