Классический форум-трекер
canvas not supported
Нас вместе: 4 077 882

Интерны (2014) SATRip (Сезон 11, серии 1-20 из 20)


Страницы:   Пред.  1, 2 
 
RSS
Начать новую тему   Ответить на тему    Торрент-трекер NNM-Club -> Отечественные сериалы -> Интерны
Автор Сообщение
svlesin ®
Модератор Документалистики/TV
RG Releasers
Релизер 25000+ Uploader 300+
 
Стаж: 9 лет 9 мес.
Сообщений: 33774
Ratio: 1738,763
Поблагодарили: 3249415
100%
russia.gif
Интерны (2014) SATRip
Режиссер / Телекомпания: ТНТ
Русское название: Интерны
Год выпуска: 2014
Производство: Россия, "Комеди Клаб Продакшн"
Жанр: Комедия

Режиссер: Максим Пежемский, Дина Штурманова

Актеры: Иван Охлобыстин, Илья Глинников, Александр Ильин мл., Вадим Демчог, Светлана Камынина, Юлия Назаренко-Благая, Один Ланд Байрон, Светлана Пермякова, Илья Шидловский, Александр Ляпин, Аглая Тарасова

Описание фильма:
Жизнь обычной многопрофильной больницы - сплошная рутина. Ненормированный рабочий день, тяжелая, неблагодарная работа, а также инопланетяне, электрики, спивающийся венеролог, озабоченная медсестра, больной-эксгибиционист, ручная крыса, четыре интерна, которые все время расстраивают своего руководителя... Как Иван Охлобыстин в лице доктора Быкова справится со всей этой суетой?

Продолжительность: Каждая серия х 00:24:00
Качество видео: SATRip

Видеокодек: XviD
Битрейт видео: 1800 kbps
Размер кадра: 720x400
Аудиокодек: MP3, 2 ch
Битрейт аудио: 128 kbps
Формат : AVI
Формат/Информация : Audio Video Interleave
Размер файла : 338 Мбайт
Продолжительность : 24 м.
Общий поток : 1938 Кбит/сек
Библиотека кодирования : VirtualDub build 32817/release

Видео
Идентификатор : 0
Формат : MPEG-4 Visual
Профиль формата : Advanced Simple@L5
Параметр BVOP формата : 2
Параметр QPel формата : Нет
Параметр GMC формата : Без точки перехода
Параметр матрицы формата : Default (MPEG)
Идентификатор кодека : XVID
Идентификатор кодека/Подсказка : XviD
Продолжительность : 24 м.
Битрейт : 1800 Кбит/сек
Ширина : 720 пикселей
Высота : 400 пикселей
Соотношение сторон : 16:9
Частота кадров : 25,000 кадров/сек
Цветовое пространство : YUV
Субдискретизация насыщенности : 4:2:0
Битовая глубина : 8 бит
Тип развёртки : Прогрессивная
Метод сжатия : С потерями
Бит/(Пиксели*Кадры) : 0.250
Размер потока : 314 Мбайт (93%)
Библиотека кодирования : XviD 1.2.1 (UTC 2008-12-04)

Аудио
Идентификатор : 1
Формат : MPEG Audio
Версия формата : Version 1
Профиль формата : Layer 3
Режим : Joint stereo
Расширение режима : MS Stereo
Идентификатор кодека : 55
Идентификатор кодека/Подсказка : MP3
Продолжительность : 24 м.
Вид битрейта : Постоянный
Битрейт : 128 Кбит/сек
Каналы : 2 канала
Частота : 48,0 КГц
Метод сжатия : С потерями
Размер потока : 22,3 Мбайт (7%)
Выравнивание : Разделение по промежуткам
Продолжительность промежутка : 40 мс. (1,00 видеокадр)
Время предзагрузки промежутка : 500 мс.
Скриншоты:


Интерны на NNM-Club

Время раздачи: 24/7. До первых 5 скачавших.
[NNM-Club.me]_Internyi. Sezon 11 (2014).torrent
 Торрент: Платиновая раздача  Зарегистрирован
 
Скачать


Примагнититься
 Зарегистрирован:   06 Ноя 2014 15:54:47
 Размер:   6,62 GB  (
 Рейтинг:   4,4 (Голосов: 533)
 Поблагодарили:   1983
 Проверка:   Оформление проверено модератором 06 Ноя 2014 16:13:24
Как cкачать  ·  Как раздать  ·  Правильно оформить  ·  Поднять ратио!  

_________________
Уважаемые пользователи Клуба! От меня релизов больше не будет. Может быть, буду поддерживать «Обновляемые раздачи». Спасибо всем, кто благодарил меня и говорил/нажимал «Спасибо»!
andygood73
Стаж: 8 лет 4 мес.
Сообщений: 1
Ratio: 35,805
100%
russia.gif
СПАСИБО БОЛЬШОЕ!!!
ageykopylov
Стаж: 7 лет 9 мес.
Сообщений: 12
Ratio: 2,667
100%
russia.gif
Благодарю раздающего!!!
eleba2189
Стаж: 8 лет 2 мес.
Сообщений: 8
Ratio: 0,395
100%
Спасибо
alinasev2011
Стаж: 8 лет 7 мес.
Сообщений: 234
Ratio: 26,902
100%
Откуда: Севастополь
russia.gif
svlesin, спасибо Вам огромное за Вашу работу. Спасибо за хорошее настроение!
alex-m11
Стаж: 5 лет 6 мес.
Сообщений: 2
Ratio: 4,024
0%
Mix1981 писал(а): Перейти к сообщению
Новый сезон да и предыдущий с этими 3 ушлепками, уже не торт.

Отличный сериал!!!!!!!!!!!!!!!!!!!!!
borodetskiy
Стаж: 8 лет 3 мес.
Сообщений: 95
Ratio: 5,833
0.92%
Последние пару серий вполне смотрибельны - напомнили старые сезоны
vladimirovichbc
Стаж: 7 лет 9 мес.
Сообщений: 8
Ratio: 0,586
6.67%
От серии к серии всё меньше Софьи. Это радует.
svlesin ®
Модератор Документалистики/TV
RG Releasers
Релизер 25000+ Uploader 300+
 
Стаж: 9 лет 9 мес.
Сообщений: 33774
Ratio: 1738,763
Поблагодарили: 3249415
100%
russia.gif
ТОРРЕНТ ОБНОВЛЁН.
ДОБАВЛЕНЫ ФИНАЛЬНЫЕ 19-20 СЕРИИ

_________________
Уважаемые пользователи Клуба! От меня релизов больше не будет. Может быть, буду поддерживать «Обновляемые раздачи». Спасибо всем, кто благодарил меня и говорил/нажимал «Спасибо»!
Ironstuff
Стаж: 10 лет 2 мес.
Сообщений: 222
Ratio: 3015,336
Поблагодарили: 2
100%
russia.gif
Серий точно 20? Не 23, как ранее заявлялось?
dnk77242
Стаж: 8 лет 6 мес.
Сообщений: 1886
Ratio: 6,861
Поблагодарили: 1
100%
Откуда: Там где туточки
russia.gif
это последняя серия в этом году? вроде как 20-ая из 23-ех.????
mamamax
Стаж: 7 лет 4 мес.
Сообщений: 95
Ratio: 27,388
100%
Господа сценаристы! Бесплатная идея для вас. Первую серию 12-го сезона Интернов начать с драматического ДТП в котором внезапно погибла Софья!!! Как варианты: а)авиакатастрофа; б) кораблекрушение; в) Эбола; ...я) белая горячка. Короче, не важно как, но уберите ЭТО чудовище из сериала! Ни разу не улыбнула ее роль, а сюжетные линии, замкнутые на нее вызывают зевоту! На детях гениев природа отдыхает. Это я о К. Раппопорт и ее дочери.
DrBrownNeo
Стаж: 9 лет 1 мес.
Сообщений: 35
Ratio: 3,337
100%
jamaica.gif
СПАСИБО!
зы
то что Цензура - шлак.
для нормуль-кентух - ништяк!
скорости покушал, быкова послушал..
Показать сообщения:   
Начать новую тему   Ответить на тему    Торрент-трекер NNM-Club -> Отечественные сериалы -> Интерны Часовой пояс: GMT + 3
Страницы:   Пред.  1, 2
Страница 2 из 2