Классический форум-трекер
canvas not supported
Нас вместе: 4 071 516

Discovery: Гигантские чудовища. Крупнейший динозавр-убийца / Mega Beasts. Biggect Killer Dino (2009) IPTVRip


 
 
RSS
Начать новую тему   Ответить на тему    Торрент-трекер NNM-Club -> Зарубежные TV-бренды -> Доисторический мир
Автор Сообщение
skorpionN ®
Ведущий Документалист
Стаж: 11 лет 9 мес.
Сообщений: 9514
Ratio: 2629,145
Раздал: 22,35 TB
Поблагодарили: 361981
100%
Discovery: Гигантские чудовища. Крупнейший динозавр-убийца / Mega Beasts. Biggect Killer Dino (2009) IPTVRip
Автор рипа OLARRI

Русское название: Discovery: Гигантские чудовища. Крупнейший динозавр-убийца
Оригинальное название: Mega Beasts. Biggect Killer Dino
Режиссер / Телекомпания: Фил Фэйклог, Дэйв Хадинг, Эрик Нельсон
Год выпуска: 2009
Жанр: Документальный

Описание:
Свирепые мега животные, включая: Terror Bird - гигантская птица с могущественным клювом, которая глотала лошадок в один присест, а мелких копытных "не жуя"; Mosasaur- доисторическое чудовище, обладавшее 2-х метровыми челюстями с дополнительным рядом зубов и отвратительным характером - любил обедать гигантскими акулами и плезиозаврами.; приведены в жизнь с помощью компьютерной графики и подсказок окаменелости, чтобы показать, как они возможно, жили - и умерли. Каждый эпизод демонстрирует, как эти огромные существа жили бы, как они будут бороться и как они действовали, если бы они все еще бродили по планете сегодня.
03. Крупнейший динозавр-убийца / Biggect Killer Dino
Спинозавр царил на Земле 100 млн лет назад. У этого хищника, вдвое превосходившего тиранозавра своими размерами, был удлиненный череп, похожий на крокодилий, и массивные челюсти.

Продолжительность: 00:43:02

Перевод: Одноголосый закадровый, профессиональный

Видеокодек: Xvid
Битрейт видео: ~XVID 25.00fps 1488Kbps
Размер кадра: 704x400
Качество видео: IPTVRip
Аудиокодек: MP3
Битрейт аудио: MPEG Audio Layer 3 48000Hz stereo 128Kbps

Гигантские чудовища. Ужасная птица / Mega Beasts. Terror Bird
Гигантские чудовища. Тиранозавр океанских глубин / Mega Beasts. T-Rex of the Deep
Гигантские чудовища. Крупнейший динозавр-убийца / Biggect Killer Dino
Гигантские чудовища. Собака-медведь / Bear Dog
Гигантские чудовища. Великий американский хищник / Dinosaur King
Гигантские чудовища. Гигантский потрошитель / Mega Beast Megalania
Код:
Общее
Полное имя                       : W:\Документалистика, развлекательное шоу\Доисторический мир\Гигантские чудовища (Mega Beasts)\03. Крупнейший динозавр-убийца. (Biggect Killer Dino).avi
Формат                           : AVI
Формат/Информация                : Audio Video Interleave
Размер файла                     : 501 Мбайт
Продолжительность                : 43 м.
Общий поток                      : 1626 Кбит/сек
Программа кодирования            : VirtualDubMod 1.5.10.2 (build 2540/release)
Библиотека кодирования           : VirtualDubMod build 2540/release

Видео
Идентификатор                    : 0
Формат                           : MPEG-4 Visual
Профиль формата                  : Advanced Simple@L5
Параметр BVOP формата            : 1
Параметр QPel формата            : Нет
Параметр GMC формата             : Без точки перехода
Параметр матрицы формата         : Default (MPEG)
Идентификатор кодека             : XVID
Идентификатор кодека/Подсказка   : XviD
Продолжительность                : 43 м.
Битрейт                          : 1489 Кбит/сек
Ширина                           : 704 пикселя
Высота                           : 400 пикселей
Соотношение сторон               : 16:9
Частота кадров                   : 25,000 кадров/сек
Цветовое пространство            : YUV
Субдискретизация насыщенности    : 4:2:0
Битовая глубина                  : 8 бит
Тип развёртки                    : Прогрессивная
Метод сжатия                     : С потерями
Бит/(Пиксели*Кадры)              : 0.211
Размер потока                    : 458 Мбайт (92%)
Библиотека кодирования           : XviD 1.2.1 (UTC 2008-12-04)

Аудио
Идентификатор                    : 1
Формат                           : MPEG Audio
Версия формата                   : Version 1
Профиль формата                  : Layer 3
Идентификатор кодека             : 55
Идентификатор кодека/Подсказка   : MP3
Продолжительность                : 43 м.
Вид битрейта                     : Постоянный
Битрейт                          : 128 Кбит/сек
Каналы                           : 2 канала
Частота                          : 48,0 КГц
Метод сжатия                     : С потерями
Размер потока                    : 39,4 Мбайт (8%)
Выравнивание                     : Соединение по промежуткам
Продолжительность промежутка     : 40  мс. (1,00 видеокадр)
Время предзагрузки промежутка    : 504  мс.
Библиотека кодирования           : LAME3.98r
Настройки программы              : -m s -V 4 -q 2 -lowpass 17 -b 128

Скриншоты:




Время раздачи: 24/7 ( до первых скачавших, перебои со связью бывают,зависит от провайдера
Реставрация релиза: BarShadow
Biggect_Killer_Dino[nnm-club.ru].avi.torrent
 Торрент: Платиновая раздача  Зарегистрирован
 
Скачать


Примагнититься
 Зарегистрирован:   12 Дек 2010 15:52:51
 Размер:   501 MB  (
 Рейтинг:   4,5 (Голосов: 29)
 Поблагодарили:   122
 Проверка:   Оформление проверено модератором 12 Дек 2010 15:53:45
Как cкачать  ·  Как раздать  ·  Правильно оформить  ·  Поднять ратио!  
Sordes
Стаж: 6 лет 4 мес.
Сообщений: 52
Ratio: 7,407
100%
качество видео унылое - кадр дергается, спасибо
Показать сообщения:   
Начать новую тему   Ответить на тему    Торрент-трекер NNM-Club -> Зарубежные TV-бренды -> Доисторический мир Часовой пояс: GMT + 3
Страница 1 из 1