Классический форум-трекер
canvas not supported
Нас вместе: 4 077 845

Шал / Старик / Shal (2012) DVD9


 
 
RSS
Начать новую тему   Ответить на тему    Торрент-трекер NNM-Club -> Зарубежное кино -> Азиатское кино (DVD)
Автор Сообщение
Shuran80 ®
Свободный релизер
 
Стаж: 10 лет 5 мес.
Сообщений: 3184
Ratio: 1177,333
Раздал: 86,83 TB
Поблагодарили: 187236
100%
Откуда: Ленинград
ussr.gif
Шал / Старик / Shal (2012) DVD9
Русское название: Шал / Старик
Оригинальное название: Shal
Год выпуска: 2012
Производство: Казахстан
Жанр: Драма
Перевод: Одноголосый закадровый [Лицензия]
Субтитры: Отсутствуют

Режиссер: Ермек Турсунов
Актеры: Ерболат Тогузаков, Орынбек Молдахан, Исбек Абильмажинов, Ондасын Бесикбасов, Ержан Бесикбасов, Ержан Нусипакынов, Олег Полторацких, Диана Мукушева, Аман Малдыбаев, Игорь Горшков

Описание фильма:
Небольшая семья — старик, невестка и внук — ведет обычную и ничем непримечательную жизнь в далекой степи. Им нельзя ссориться, хотя их общение весьма ограничено. Им нужно уметь прощать и быть прозорливыми, чтобы не расплескать по дороге важные истины. Им важно жить по-людски и важно, чтобы старик успел передать своему внуку главные ценности этой жизни...


Дата мировой премьеры: 11 октября 2012
Дата выхода DVD релиза: 26 декабря 2012

Продолжительность: 01:41:56
Качество видео: DVD9
Видеокодек: MPEG-2
Битрейт видео: ~5937 kbps
Размер кадра: PAL 16:9 (720x576@1024х576)
Аудио 1: AC3, 6 ch, 448 kbps (Русский)
Аудио 2: AC3, 6 ch, 448 kbps (Казахский)

Дополнительно: Фильм о фильме
Общее
Полное имя : Shal.2012.DVD9\VIDEO_TS\VTS_02_2.VOB
Формат : MPEG-PS
Размер файла : 1000 Мбайт
Продолжительность : 20 м.
Режим общего битрейта : Переменный
Общий поток : 6972 Кбит/сек

Видео
Идентификатор : 224 (0xE0)
Формат : MPEG Video
Версия формата : Version 2
Профиль формата : Main@Main
Параметр BVOP формата : Да
Параметр матрицы формата : Выборочная
Параметр GOP формата : M=3, N=15
Продолжительность : 20 м.
Вид битрейта : Переменный
Битрейт : 5937 Кбит/сек
Максимальный битрейт : 8000 Кбит/сек
Ширина : 720 пикселей
Высота : 576 пикселей
Соотношение сторон : 16:9
Частота кадров : 25,000 кадров/сек
Стандарт вещания : PAL
Цветовое пространство : YUV
Субдискретизация насыщенности : 4:2:0
Битовая глубина : 8 бит
Тип развёртки : Чересстрочная
Порядок развёртки : Верхнее поле первое
Метод сжатия : С потерями
Бит/(Пиксели*Кадры) : 0.573
Размер потока : 851 Мбайт (85%)

Аудио #1
Идентификатор : 189 (0xBD)-128 (0x80)
Формат : AC-3
Формат/Информация : Audio Coding 3
Расширение режима : CM (complete main)
Режим смешивания : DVD-Video
Продолжительность : 20 м.
Вид битрейта : Постоянный
Битрейт : 448 Кбит/сек
Каналы : 6 каналов
Расположение каналов : Front: L C R, Side: L R, LFE
Частота : 48,0 КГц
Битовая глубина : 16 бит
Метод сжатия : С потерями
Задержка видео : -704 мс.
Размер потока : 64,3 Мбайт (6%)

Аудио #2
Идентификатор : 189 (0xBD)-129 (0x81)
Формат : AC-3
Формат/Информация : Audio Coding 3
Расширение режима : CM (complete main)
Режим смешивания : DVD-Video
Продолжительность : 20 м.
Вид битрейта : Постоянный
Битрейт : 448 Кбит/сек
Каналы : 6 каналов
Расположение каналов : Front: L C R, Side: L R, LFE
Частота : 48,0 КГц
Битовая глубина : 16 бит
Метод сжатия : С потерями
Задержка видео : -704 мс.
Размер потока : 64,3 Мбайт (6%)

Меню
Title: Shal.2012.DVD9
Size: 5.88 Gb ( 6 162 260,00 KBytes ) - DVD-9
Enabled regions: 1, 2, 3, 4, 5, 6, 7, 8

VTS_01 :
Play Length: 00:00:39
Video: PAL 16:9 (720x576) VBR, Auto Letterboxed
Audio:
Russian (Dolby AC3, 6 ch)

VTS_02 :
Play Length: 01:41:56+{01:41:56}
Video: PAL 16:9 (720x576) VBR, Auto Letterboxed
Audio:
Russian (Dolby AC3, 6 ch)
Kazakh (Dolby AC3, 6 ch)

VTS_03 :
Play Length: 00:23:16+{00:23:16}
Video: PAL 4:3 (720x576) VBR
Audio:
Not specified (Dolby AC3, 6 ch)

* Menus Information *

VIDEO_TS Menu
Video:
PAL 16:9 (720x576) VBR
Auto Pan&Scan
Audio:
Not specified (LinearPCM, 2 ch)
English Language Unit :
Title Menu

VTS_01 Menu
Video:
PAL 16:9 (720x576) VBR
Auto Letterboxed
Audio:
Not specified (Dolby AC3, 6 ch)
English Language Unit :
Root Menu
Chapter (PTT) Menu

VTS_02 Menu
Video:
NTSC 4:3 (720x480) VBR
Auto Pan&Scan, Auto Letterboxed
English Language Unit :
Root Menu
Chapter (PTT) Menu

VTS_03 Menu
Video:
NTSC 4:3 (720x480) VBR
Auto Pan&Scan, Auto Letterboxed
English Language Unit :
Root Menu
Chapter (PTT) Menu
Скриншоты:




Время раздачи: Обычно с 19:00 до 00:00 :спит:
[NNM-Club.ru]_Shal.2012.DVD9.torrent
 Торрент: Платиновая раздача  Зарегистрирован
 
Скачать


 Зарегистрирован:   17 Янв 2013 12:57:15
 Размер:   5,88 GB  (
 Рейтинг:   4,7 (Голосов: 39)
 Поблагодарили:   128
 Проверка:   Оформление проверено модератором 18 Янв 2013 08:54:06
Как cкачать  ·  Как раздать  ·  Правильно оформить  ·  Поднять ратио!  

_________________
Внимание! Временно отсутствую на своих раздачах. Просьба понять и простить. )
gtsport
Стаж: 8 лет 10 мес.
Сообщений: 203
Ratio: 1,497
100%
russia.gif
Нормуль, смотреть можно 7/10

_________________
Intel Core 2 Quad Q8400 3200 MHz
Corsair Dominator 2x2Gb DDR2-1066 (533 МГц)
Gigabyte GeForce GTX 460
ThomasJeffrey
Стаж: 6 лет 11 мес.
Сообщений: 44
Ratio: 12,631
Поблагодарили: 268
100%
Да нормальный фильм
vazelin11
Стаж: 8 лет 3 мес.
Сообщений: 59
Ratio: 12,788
100%
Вот оно настоящее кино. Вот какими качествами должен обладать настоящий мужчина. Не умеющим глубоко мыслить можно не смотреть.
e4v7g
Стаж: 9 лет
Сообщений: 184
Ratio: 20,87
Поблагодарили: 50
100%
Откуда: Россия
russia.gif
Посмотрел... впечатление фильм произвёл! Теперь перевожу в mkv, убираю излишнюю желтизну и довожу до размера 2.3 Mb, чтобы уместить на один DVD5 диск вместе с Весьегонской волчицей.
HARVESTER666999
Стаж: 9 лет 1 мес.
Сообщений: 366
Ratio: 19,268
3.09%
russia.gif
e4v7g писал(а): Перейти к сообщению
Теперь перевожу в mkv, убираю излишнюю желтизну и довожу до размера 2.3 Mb, чтобы уместить на один DVD5 диск вместе с...

И на кой это нужно? Качественных релизов нет больше что бы в mkv перевести? Люди *** маются.
А фильм отличный, в россии такого никогда наверное не снимут.
Жозэ
Стаж: 9 лет 6 мес.
Сообщений: 105
Ratio: 18,332
100%
ussr.gif
отличное кино..

_________________
HE ПЬiТАNCR 4TO-TO NЗMEHNTЬ..
Brom361
Стаж: 8 лет 9 мес.
Сообщений: 74
Ratio: 4,494
Поблагодарили: 959
100%
Отличный фильм. Поставил 5!
1985god
Стаж: 9 лет 9 мес.
Сообщений: 147
Ratio: 1,68
37.04%
ukraine.gif
намного лучше чем американский "аналог"
ChakNunchak
Стаж: 11 лет 8 мес.
Сообщений: 170
Ratio: 4,048
Поблагодарили: 482
100%
russia.gif
При всем уважении к казахскому кино 3 из 5. Посыл в фильме безусловно верен, а вот с реализацией слабовато.
MarloK66
Стаж: 4 года 2 мес.
Сообщений: 2
Ratio: 2,461
0%
russia.gif
Встаньте на раздачу плиз. Неделю уже не могу скачать.
Показать сообщения:   
Начать новую тему   Ответить на тему    Торрент-трекер NNM-Club -> Зарубежное кино -> Азиатское кино (DVD) Часовой пояс: GMT + 3
Страница 1 из 1