Классический форум-трекер
canvas not supported
Нас вместе: 4 078 983

Гибель Японии / Submersion of Japan(Nippon chinbotsu) (1974) DVD5


 
 
RSS
Начать новую тему   Ответить на тему    Торрент-трекер NNM-Club -> Зарубежное кино -> Азиатское кино (DVD)
Автор Сообщение
rostik973 ®
Стаж: 9 лет 9 мес.
Сообщений: 800
Ratio: 31,199
Поблагодарили: 49001
100%
Откуда: Киев
ukraine.gif
Гибель Японии / Submersion of Japan(Nippon chinbotsu) (1974) DVD5
Русское название: Гибель Японии
Оригинальное название: Submersion of Japan(Nippon chinbotsu)
Год выпуска: 1974
Жанр: Триллер, Фантастика, Драма

Описание фильма:
Сюжет фильма-катастрофы построен на предположении, что в будущем Японии грозит погружение в океан, ввиду неизбежных тектонических процессов, происходящих в земной коре. В ходе научной экспедиции, изучающей подводные тектонические разломы, ученые понимают, что должна случиться катастрофа, которая приведет к гибели Японии.
Один из ученых, несмотря на риск потерять свой авторитет, предупреждает о сделанном открытии и возможной катастрофе правительство и предлагает подготовить население страны к возможной эвакуации. Однако, никто не прислушивается к его словам

Режиссер: Сиро Моритами
Актеры: Кэйдзю Кобаяси, Хироси Фудзиока, Тэцуро Танба, Аюми Исида, Сёго Симада, Джон Фудзиока, Эндрю Хьюз, Нобуо Накамура

Продолжительность: 02:23:26
Перевод: Дублированный
Язык субтитров: русские
Вид субтитров: Вшитые



Видеокодек: MPEG-2
Битрейт видео: ~3404kb/s
Размер кадра: NTSC 16:9 (720x480) VBR
Качество видео: DVD5
Аудио №1: AC3 5.1, 448Kbps - Японский(Оригинал)
Аудио №2: AC3 2.0, 192Kbps - Японский(Оригинал)
Аудио №3: AC3 2.0, 192Kbps - Русский(Дублированный)
Аудио №4: AC3 2.0, 192 Kbps - Русский(Одноголосый закадровый)-любительский
Общее
Полное имя : D:\Films\NIPPON_CHINBOTSU\VIDEO_TS\VTS_04_1.VOB
Формат : MPEG-PS
Размер файла : 1024 Мбайт
Продолжительность : 31 м.
Общий поток : 4518 Кбит/сек

Видео
Идентификатор : 224 (0xE0)
Формат : MPEG Video
Версия формата : Version 2
Профиль формата : Main@Main
Параметр BVOP формата : Да
Параметр матрицы формата : По умолчанию
Продолжительность : 31 м.
Вид битрейта : Переменный
Битрейт : 3404 Кбит/сек
Номинальный битрейт : 8776 Кбит/сек
Ширина : 720 пикс.
Высота : 480 пикс.
Соотношение сторон : 16:9
Частота кадров : 29,970 кадр/сек
Стандарт вещания : NTSC
Цветовое пространство : YUV
Подвыборка цветности : 4:2:0
Битовая глубина : 8 бит
Тип развёртки : Прогрессивная
Порядок развёртки : Нижнее поле первое
Метод сжатия : С потерями
Бит/(Пиксели*Кадры) : 0.329
Размер потока : 772 Мбайт (75%)

Аудио #1
Идентификатор : 189 (0xBD)-128 (0x80)
Формат : AC-3
Формат/Информация : Audio Coding 3
Расширение режима : CM (complete main)
Режим смешивания : DVD-Video
Продолжительность : 31 м.
Вид битрейта : Постоянный
Битрейт : 192 Кбит/сек
Канал(ы) : 2 канала(ов)
Расположение каналов : Front: L R
Частота : 48,0 КГц
Битовая глубина : 16 бит
Метод сжатия : С потерями
Размер потока : 43,5 Мбайт (4%)

Аудио #2
Идентификатор : 189 (0xBD)-129 (0x81)
Формат : AC-3
Формат/Информация : Audio Coding 3
Расширение режима : CM (complete main)
Режим смешивания : DVD-Video
Продолжительность : 31 м.
Вид битрейта : Постоянный
Битрейт : 448 Кбит/сек
Канал(ы) : 6 канала(ов)
Расположение каналов : Front: L C R, Side: L R, LFE
Частота : 48,0 КГц
Битовая глубина : 16 бит
Метод сжатия : С потерями
Размер потока : 102 Мбайт (10%)

Аудио #3
Идентификатор : 189 (0xBD)-130 (0x82)
Формат : AC-3
Формат/Информация : Audio Coding 3
Расширение режима : CM (complete main)
Режим смешивания : DVD-Video
Продолжительность : 31 м.
Вид битрейта : Постоянный
Битрейт : 192 Кбит/сек
Канал(ы) : 2 канала(ов)
Расположение каналов : Front: L R
Частота : 48,0 КГц
Битовая глубина : 16 бит
Метод сжатия : С потерями
Размер потока : 43,5 Мбайт (4%)

Аудио #4
Идентификатор : 189 (0xBD)-131 (0x83)
Формат : AC-3
Формат/Информация : Audio Coding 3
Расширение режима : CM (complete main)
Режим смешивания : DVD-Video
Продолжительность : 31 м.
Вид битрейта : Постоянный
Битрейт : 192 Кбит/сек
Канал(ы) : 2 канала(ов)
Расположение каналов : Front: L R
Частота : 48,0 КГц
Битовая глубина : 16 бит
Метод сжатия : С потерями
Размер потока : 43,5 Мбайт (4%)

Текст #1
Идентификатор : 189 (0xBD)-32 (0x20)
Формат : RLE
Формат/Информация : Run-length encoding
Режим смешивания : DVD-Video

Текст #2
Идентификатор : 189 (0xBD)-33 (0x21)
Формат : RLE
Формат/Информация : Run-length encoding
Режим смешивания : DVD-Video

Меню
Title: NIPPON_CHINBOTSU
Size: 4.35 Gb ( 4 565 252,00 KBytes ) - DVD-5
Enabled regions: 1, 2, 3, 4, 5, 6, 7, 8

VTS_01 :
Play Length: 00:00:00
Video: NTSC 4:3 (720x480) VBR
Audio:
Not specified (Dolby AC3, 2 ch)

VTS_02 :
Play Length: 00:00:00
Video: NTSC 4:3 (720x480) VBR
Audio:
Not specified (Dolby AC3, 2 ch)

VTS_03 :
Play Length: 00:00:00
Video: NTSC 4:3 (720x480) VBR
Audio:
Not specified (Dolby AC3, 6 ch)

VTS_04 :
Play Length: 02:23:26
Video: NTSC 16:9 (720x480) VBR, Auto Letterboxed
Audio:
Russian (Dolby AC3, 2 ch)
Japanese (Dolby AC3, 6 ch)
Japanese (Dolby AC3, 2 ch)
Russian (Dolby AC3, 2 ch)
Subtitles:
Russian

VTS_05 :
Play Length: 00:00:00
Video: NTSC 4:3 (720x480) VBR
Audio:
Japanese (Dolby AC3, 2 ch)

VTS_06 :
Play Length: 00:00:01
Video: NTSC 16:9 (720x480) VBR, Auto Letterboxed
Audio:
Not specified (Dolby AC3, 2 ch)

VTS_07 :
Play Length: 00:00:00
Video: NTSC 16:9 (720x480) VBR, Auto Letterboxed
Audio:
Not specified (Dolby AC3, 2 ch)

VTS_08 :
Play Length: 00:00:02
Video: NTSC 16:9 (720x480) VBR, Auto Letterboxed
Audio:
Not specified (Dolby AC3, 2 ch)
-удалены бонусы
Скриншоты


Время раздачи: С 15:00 до 20:30
[NNM-Club.ru]_NIPPON_CHINBOTSU.torrent
 Торрент: Платиновая раздача  Зарегистрирован
 
Скачать


 Зарегистрирован:   20 Сен 2011 23:45:49
 Размер:   4,35 GB  (
 Рейтинг:    (Голосов: 9)
 Поблагодарили:   42
 Проверка:   Оформление проверено модератором 21 Сен 2011 11:17:44
Как cкачать  ·  Как раздать  ·  Правильно оформить  ·  Поднять ратио!  
Загрузка...
negoro12
Стаж: 9 лет
Сообщений: 1
Ratio: 59,493
100%
ussr.gif
А где дубляж?

Добавлено спустя 3 минуты 8 секунд:

Пардон, надо предупреждать, что есть вставки "синхрона"
Onega2
RG Книги
Меценат
 
Стаж: 9 лет 5 мес.
Сообщений: 835
Ratio: 748,869
Раздал: 3,361 TB
Поблагодарили: 117540
100%
Откуда: Moscow
russia.gif
Мое любимое азиатское кино. Смотрел еще в детстве по TV. Есть желающие посидировать?
Показать сообщения:   
Начать новую тему   Ответить на тему    Торрент-трекер NNM-Club -> Зарубежное кино -> Азиатское кино (DVD) Часовой пояс: GMT + 3
Страница 1 из 1