Классический форум-трекер
canvas not supported
Нас вместе: 4 077 802

Доспехи Бога 3: Миссия Зодиак / Chinese Zodiac (2012) DVD9


 
 
RSS
Начать новую тему   Ответить на тему    Торрент-трекер NNM-Club -> Зарубежное кино -> Азиатское кино (DVD)
Автор Сообщение
Gevolt ®
Update 100+
Стаж: 7 лет 10 мес.
Сообщений: 890
Ratio: 4877,064
Раздал: 196,5 TB
Поблагодарили: 93321
100%
Откуда: Нижний Новгород
Доспехи Бога 3: Миссия Зодиак / Chinese Zodiac (2012) DVD9
Русское название: Доспехи Бога 3: Миссия Зодиак
Оригинальное название: Chinese Zodiac
Год выпуска: 2012
Страна: Гонконг, Китай
Слоган: «Охота за сокровищами началась»
Жанр: боевик, комедия, приключения

Описание фильма: Главный герой истории — работающий по всему миру охотник за сокровищами Джей Си по кличке Ястреб. Известный антиквар предлагает ему отыскать шесть редких статуэток в виде голов животных. В свое время эти бронзовые скульптуры входили в набор из 12-ти предметов, олицетворявших знаки зодиака. Фигурки украшали фонтан легендарного Летнего дворца на окраине Пекина. В 1860 году величественное сооружение было разграблено и разрушено англо-французскими войсками на исходе Второй опиумной войны, а статуэтки безвозвратно утеряны.
Режиссер: Джеки Чан
Актеры: Джеки Чан (Asian Hawk), Квон Сан У (Simon), Ляо Фань (David), Синтхун Яо (Coco), Чжан Ланьсинь (Bonnie), Лаура Вейссбеккер (Catherine de Sichel), Оливер Платт (Lawrence Morgan), Шу Ци (David's Wife), Дэниэл Ву (Hospital Doctor), Кэйтлин Дешель (Katie), Алаа Омузун (Vulture), Эмили Гуйо (French Reporter)
Дублёры: Андрей Бархударов (Asian Hawk), Прохор Чеховской (Simon), Даниил Эльдаров (David), Анастасия Жаркова (Bonnie), Сергей Смирнов (Vulture), Диомид Виноградов (Michael Morgan)
Продолжительность: 02:02:56
Перевод: Дублированный (Лицензия)
Язык субтитров: Русские
Вид субтитров: Вшитые отключаемые

Дата мировой премьеры: 12 декабря 2012
Дата российской премьеры: 14 марта 2013, «CP Дистрибуция»
Дата выхода DVD релиза: 14 марта 2013, «CP Дистрибуция»

Качество видео: DVD9
Видеокодек: MPEG-2
Битрейт видео: ~6000 Kb/s
Размер кадра: PAL 16x9 (720х576@1024x576)
Аудио 1: 48 kHz, Dolby AC3 5.1, 448 kbps, русский
Аудио 2: 48 kHz, Dolby AC3 5.1, 448 kbps, китайский
Аудио 3: 48 kHz, DTS 5.1 1536 kbps, русский
Доп. материалы: Смотрите на DVD, Создатели и исполнители
Title: Dospehi.Boga.3.2012.DVD9
Size: 7.36 Gb ( 7 714 616,00 KBytes ) - DVD-9
Enabled regions: 1, 2, 3, 4, 5, 6, 7, 8

VTS_01 :
Play Length: 00:00:05
Video: PAL 4:3 (720x576) VBR
Subtitles:
English
English

VTS_02 :
Play Length: 00:00:41
Video: PAL 16:9 (720x576) VBR, Auto Letterboxed
Audio:
Not specified (Dolby AC3, 2 ch)
Not specified (Dolby AC3, 2 ch)
Not specified (Dolby AC3, 2 ch)
Subtitles:
Not specified

VTS_03 :
Play Length: 00:01:29
Video: PAL 16:9 (720x576) VBR, Auto Letterboxed
Audio:
Not specified (Dolby AC3, 2 ch)
Not specified (Dolby AC3, 2 ch)
Not specified (Dolby AC3, 2 ch)
Subtitles:
Not specified

VTS_04 :
Play Length: 01:58:02
Video: PAL 16:9 (720x576) VBR, Auto Letterboxed
Audio:
Russian (Dolby AC3, 6 ch)
Chinese (Dolby AC3, 6 ch)
Russian (DTS, 5 ch)
Subtitles:
Russian

VTS_05 :
Play Length: 00:01:49
Video: PAL 16:9 (720x576) VBR, Auto Letterboxed
Audio:
Not specified (Dolby AC3, 2 ch)
Subtitles:
Not specified

VTS_06 :
Play Length: 00:02:05
Video: PAL 16:9 (720x576) VBR, Auto Letterboxed
Audio:
Not specified (Dolby AC3, 6 ch)
Subtitles:
Not specified

VTS_07 :
Play Length: 00:01:10
Video: PAL 16:9 (720x576) VBR, Auto Letterboxed
Audio:
Not specified (Dolby AC3, 2 ch)
Subtitles:
Not specified
General
Complete name : D:\Dospehi.Boga.3.2012.DVD9\VIDEO_TS\VTS_04_4.VOB
Format : MPEG-PS
File size : 1 024 MiB
Duration : 16mn 41s
Overall bit rate mode : Variable
Overall bit rate : 8 579 Kbps

Video
ID : 224 (0xE0)
Format : MPEG Video
Format version : Version 2
Format profile : Main@Main
Format settings, BVOP : Yes
Format settings, Matrix : Default
Format settings, GOP : M=3, N=12
Duration : 16mn 41s
Bit rate mode : Variable
Bit rate : 6 002 Kbps
Maximum bit rate : 8 000 Kbps
Width : 720 pixels
Height : 576 pixels
Display aspect ratio : 16:9
Frame rate : 25.000 fps
Standard : PAL
Color space : YUV
Chroma subsampling : 4:2:0
Bit depth : 8 bits
Scan type : Progressive
Compression mode : Lossy
Bits/(Pixel*Frame) : 0.579
Time code of first frame : 00:50:06:04
Time code source : Group of pictures header
Stream size : 716 MiB (70%)

Audio #1
ID : 189 (0xBD)-128 (0x80)
Format : AC-3
Format/Info : Audio Coding 3
Mode extension : CM (complete main)
Format settings, Endianness : Big
Muxing mode : DVD-Video
Duration : 16mn 41s
Bit rate mode : Constant
Bit rate : 448 Kbps
Channel(s) : 6 channels
Channel positions : Front: L C R, Side: L R, LFE
Sampling rate : 48.0 KHz
Bit depth : 16 bits
Compression mode : Lossy
Delay relative to video : -384ms
Stream size : 53.5 MiB (5%)

Audio #2
ID : 189 (0xBD)-129 (0x81)
Format : AC-3
Format/Info : Audio Coding 3
Mode extension : CM (complete main)
Format settings, Endianness : Big
Muxing mode : DVD-Video
Duration : 16mn 41s
Bit rate mode : Constant
Bit rate : 448 Kbps
Channel(s) : 6 channels
Channel positions : Front: L C R, Side: L R, LFE
Sampling rate : 48.0 KHz
Bit depth : 16 bits
Compression mode : Lossy
Delay relative to video : -384ms
Stream size : 53.5 MiB (5%)

Audio #3
ID : 189 (0xBD)-138 (0x8A)
Format : DTS
Format/Info : Digital Theater Systems
Mode : 16
Format settings, Endianness : Big
Muxing mode : DVD-Video
Duration : 16mn 41s
Bit rate mode : Constant
Bit rate : 1 510 Kbps
Channel(s) : 6 channels
Channel positions : Front: L C R, Side: L R, LFE
Sampling rate : 48.0 KHz
Bit depth : 16 bits
Compression mode : Lossy
Delay relative to video : -437ms
Stream size : 180 MiB (18%)

Text
ID : 189 (0xBD)-32 (0x20)
Format : RLE
Format/Info : Run-length encoding
Muxing mode : DVD-Video

Скриншоты:

Время раздачи: С 09:00 до 24:00
[NNM-Club.ru]_Dospehi.Boga.3.2012.DVD9.torrent
 Торрент: Золотая раздача  Зарегистрирован
 
Зарегистрируйтесь и скачайте торрент!
38,8 KB

 Зарегистрирован:   12 Мар 2013 07:31:50
 Размер:   7,36 GB  (
 Рейтинг:   4,2 (Голосов: 60)
 Поблагодарили:   132
 Проверка:   Оформление проверено модератором 15 Мар 2013 15:15:17
Как cкачать  ·  Как раздать  ·  Правильно оформить  ·  Поднять ратио!  
save2010
Покровитель талантов
 
Стаж: 9 лет 5 мес.
Сообщений: 1676
Ratio: 5,851
Поблагодарили: 124
100%
Сделайте кто-нибудь,пожалуйста из этой раздачи DVD 5! :смущение:
Убрав дополнительные материалы и ОБЯЗАТЕЛЬНО сохранив аудиодорожку
Gevolt писал(а):
Аудио 1: 48 kHz, Dolby AC3 5.1, 448 kbps, русский

Ссылку на выложенную здесь раздачу DVD5 можно мне в ЛС или в этой теме\раздаче.
Китайскую и русскую DTS дорожку желательно убрать,также желательно сделать
максимальное сжатие для конечных титров,чтобы уменьшить степень сжатия видео самого фильма.
Саша 1992
Модератор Видео
Стаж: 7 лет 9 мес.
Сообщений: 1497
Ratio: 473,806
Раздал: 43,02 TB
Поблагодарили: 128105
100%
russia.gif
Доспехи Бога 3: Миссия Зодиак / Chinese Zodiac (2012) DVD5
save2010
Покровитель талантов
 
Стаж: 9 лет 5 мес.
Сообщений: 1676
Ratio: 5,851
Поблагодарили: 124
100%
Саша 1992 писал(а): Перейти к сообщению


Большое спасибо!!! =) :респект:
viero
Стаж: 9 лет 10 мес.
Сообщений: 433
Ratio: 41,116
100%
Откуда: Дубна/Тверь
witch.png
А зачем DVD-5? На болванку и в продажу? :смех:

_________________
sinner1
Стаж: 8 лет 8 мес.
Сообщений: 256
Ratio: 134,525
100%
russia.gif
viero
болванка DVD9, дороговата... :(

_________________
просто Sinner
dman31rus
Стаж: 9 лет 5 мес.
Сообщений: 7
Ratio: 6,317
5.43%
А что мешает не терять в качестве и резать на две болванки пятых фильм 9-ку?

Овечки вам в помощь ;)
Indicom
Стаж: 10 лет 4 мес.
Сообщений: 88
Ratio: 18,935
Поблагодарили: 4
100%
Откуда: Харьков
ukraine.gif
Спасибо
Показать сообщения:   
Начать новую тему   Ответить на тему    Торрент-трекер NNM-Club -> Зарубежное кино -> Азиатское кино (DVD) Часовой пояс: GMT + 3
Страница 1 из 1