Классический форум-трекер
canvas not supported
Нас вместе: 4 079 123

Мертвая зона / The Dead Zone (1983) BDRip [H.264]


 
 
RSS
Начать новую тему   Ответить на тему    Торрент-трекер NNM-Club -> Классика кино и Старые фильмы до 90-х -> Старые Зарубежные Фильмы (HD*Rip/LQ, DVDRip, SATRip, VHSRip)
Автор Сообщение
Rulya74 ®
Феникс
Стаж: 10 лет
Сообщений: 1123
Ratio: 305,103
Раздал: 59,64 TB
Поблагодарили: 130853
100%
ukraine.gif
Мертвая зона / The Dead Zone (1983) BDRip [H.264]
Год выпуска: 1983
Жанр: Ужасы, Триллер, Драма, Детектив
Производство: США

Описание:
Этот фильм — история человека, который после несчастного случая обнаружил в себе выдающиеся, поистине уникальные психофизические способности и попытался найти место в окружающем мире, извлекая из своего дара пользу для всех людей.

Режиссер: Дэвид Кроненберг
Актеры: Кристофер Уокен, Брук Адамс, Том Скерритт, Херберт Лом, Энтони Зербе, Коллин Дьюхёрст, Мартин Шин, Николас Кэмпбелл, Шон Салливан, Джеки Барроуз...

Продолжительность: 01:43:43
Качество видео: BDRip [H.264]
Перевод: Многоголосый закадровый (Позитив-Мультимедиа), Одноголосый закадровый (Ю. Живов)
Язык субтитров: русский, английский
Вид субтитров: Вшитые - отключамые



Дата мировой премьеры: 21 октября 1983

Видеокодек: MPEG-4 AVC/H.264
Битрейт видео: ~1664 kbps
Размер кадра: 960x538
Аудио #1: 48 kHz, AC3 Dolby Digital, 6 ch, ~384.00 kbps | Многоголосый
Аудио #2: 48 kHz, AC3 Dolby Digital, 6 ch, ~384.00 kbps | Одноголосый
Аудио #3: 48 kHz, AC3 Dolby Digital, 6 ch, ~384.00 kbps | Оригинал

Релиз от:
Общее
Уникальный идентификатор : 212817311807375355781141016765860453185 (0xA01B1F93D3396F9FA921154DAF709B41)
Полное имя : D:\Torrent\The Dead Zone.1983.BDRip-AVC.mkv
Формат : Matroska
Версия формата : Version 4 / Version 2
Размер файла : 2,04 Гбайт
Продолжительность : 1 ч. 43 м.
Общий поток : 2818 Кбит/сек
Название фильма : Мертвая Зона / The Dead Zone (1983) BDRip-AVC rip by Rulya74
Дата кодирования : UTC 2014-11-16 09:02:52
Программа кодирования : mkvmerge v7.3.0 ('Nouages') 64bit built on Oct 22 2014 18:53:34
Библиотека кодирования : libebml v1.3.0 + libmatroska v1.4.1
DURATION : 01:37:02.198000000
NUMBER_OF_FRAMES : 953
NUMBER_OF_BYTES : 32727
_STATISTICS_WRITING_APP : mkvmerge v7.3.0 ('Nouages') 64bit built on Oct 22 2014 18:53:34
_STATISTICS_WRITING_DATE_UTC : 2014-11-16 09:02:52
_STATISTICS_TAGS : BPS DURATION NUMBER_OF_FRAMES NUMBER_OF_BYTES

Видео
Идентификатор : 1
Формат : AVC
Формат/Информация : Advanced Video Codec
Профиль формата : High@L4.1
Параметр CABAC формата : Да
Параметр ReFrames формата : 10 кадров
Идентификатор кодека : V_MPEG4/ISO/AVC
Продолжительность : 1 ч. 43 м.
Битрейт : 1664 Кбит/сек
Ширина : 960 пикселей
Высота : 538 пикселей
Соотношение сторон : 16:9
Режим частоты кадров : Постоянный
Частота кадров : 23,976 кадра/сек
Цветовое пространство : YUV
Субдискретизация насыщенности : 4:2:0
Битовая глубина : 8 бит
Тип развёртки : Прогрессивная
Бит/(Пиксели*Кадры) : 0.134
Размер потока : 1,17 Гбайт (57%)
Библиотека кодирования : x264 core 142 r2431 ac76440
Настройки программы : cabac=1 / ref=10 / deblock=1:-1:-1 / analyse=0x3:0x113 / me=umh / subme=11 / psy=1 / psy_rd=1.00:0.00 / mixed_ref=1 / me_range=48 / chroma_me=1 / trellis=2 / 8x8dct=1 / cqm=0 / deadzone=21,11 / fast_pskip=0 / chroma_qp_offset=-2 / threads=4 / lookahead_threads=1 / sliced_threads=0 / nr=0 / decimate=1 / interlaced=0 / bluray_compat=0 / constrained_intra=0 / bframes=5 / b_pyramid=2 / b_adapt=1 / b_bias=0 / direct=3 / weightb=1 / open_gop=0 / weightp=2 / keyint=240 / keyint_min=23 / scenecut=40 / intra_refresh=0 / rc_lookahead=40 / rc=2pass / mbtree=1 / bitrate=1664 / ratetol=1.0 / qcomp=0.60 / qpmin=0 / qpmax=69 / qpstep=4 / cplxblur=20.0 / qblur=0.5 / vbv_maxrate=62500 / vbv_bufsize=78125 / nal_hrd=none / filler=0 / ip_ratio=1.40 / aq=1:1.00
Default : Да
Forced : Нет

Аудио #1
Идентификатор : 2
Формат : AC-3
Формат/Информация : Audio Coding 3
Расширение режима : CM (complete main)
Параметр Endianness формата : Big
Идентификатор кодека : A_AC3
Продолжительность : 1 ч. 43 м.
Вид битрейта : Постоянный
Битрейт : 384 Кбит/сек
Каналы : 6 каналов
Расположение каналов : Front: L C R, Side: L R, LFE
Частота : 48,0 КГц
Битовая глубина : 16 бит
Метод сжатия : С потерями
Размер потока : 285 Мбайт (14%)
Заголовок : Профессиональный (многоголосый закадровый) Позитив-Мультимедиа
Язык : Russian
Default : Да
Forced : Нет

Аудио #2
Идентификатор : 3
Формат : AC-3
Формат/Информация : Audio Coding 3
Расширение режима : CM (complete main)
Параметр Endianness формата : Big
Идентификатор кодека : A_AC3
Продолжительность : 1 ч. 43 м.
Вид битрейта : Постоянный
Битрейт : 384 Кбит/сек
Каналы : 6 каналов
Расположение каналов : Front: L C R, Side: L R, LFE
Частота : 48,0 КГц
Битовая глубина : 16 бит
Метод сжатия : С потерями
Размер потока : 285 Мбайт (14%)
Заголовок : Авторский одноголосый (Ю. Живов)
Язык : Russian
Default : Нет
Forced : Нет

Аудио #3
Идентификатор : 4
Формат : AC-3
Формат/Информация : Audio Coding 3
Расширение режима : CM (complete main)
Параметр Endianness формата : Big
Идентификатор кодека : A_AC3
Продолжительность : 1 ч. 43 м.
Вид битрейта : Постоянный
Битрейт : 384 Кбит/сек
Каналы : 6 каналов
Расположение каналов : Front: L C R, Side: L R, LFE
Частота : 48,0 КГц
Битовая глубина : 16 бит
Метод сжатия : С потерями
Размер потока : 285 Мбайт (14%)
Заголовок : Оригинал (Английский)
Язык : English
Default : Нет
Forced : Нет

Текст #1
Идентификатор : 5
Формат : UTF-8
Идентификатор кодека : S_TEXT/UTF8
Идентификатор кодека/Информация : UTF-8 Plain Text
Язык : Russian
Default : Да
Forced : Нет

Текст #2
Идентификатор : 6
Формат : UTF-8
Идентификатор кодека : S_TEXT/UTF8
Идентификатор кодека/Информация : UTF-8 Plain Text
Язык : English
Default : Нет
Forced : Нет

Меню
00:00:00.000 : en:Chapter 01
00:00:00.375 : en:Chapter 02
00:16:49.842 : en:Chapter 03
00:34:55.093 : en:Chapter 04
00:50:51.131 : en:Chapter 05
01:09:55.941 : en:Chapter 06
01:28:13.037 : en:Chapter 07
Скриншоты:

Время раздачи: с 9:00 до 23:00
[NNM-Club.me]_The Dead Zone.1983.BDRip-AVC.mkv.torrent
 Торрент: Платиновая раздача  Зарегистрирован
 
Скачать


Примагнититься
 Зарегистрирован:   17 Ноя 2014 10:26:39
 Размер:   2,04 GB  (
 Рейтинг:   4,8 (Голосов: 78)
 Поблагодарили:   384
 Проверка:   Оформление проверено модератором 18 Ноя 2014 03:43:57
Как cкачать  ·  Как раздать  ·  Правильно оформить  ·  Поднять ратио!  
Moha46rus
Стаж: 10 лет 1 мес.
Сообщений: 96
Ratio: 58,817
100%
Откуда: Город
russia.gif
Фильм зачётный! всем кто не смотрел советую. В отличии от галимого сериального ремейка.
hammah
Стаж: 8 лет 3 мес.
Сообщений: 184
Ratio: 5,252
100%
russia.gif
Отличный фильм, спасибо за релиз!
Кристофер- красава!
bear1985
Стаж: 4 года 5 мес.
Сообщений: 2
Ratio: 1,695
61.54%
а так же советую любителям этого фильма почитать оригинал, автор Стивен Кинг, книга так и называется Мертвая зона
accept72
Стаж: 8 лет 4 мес.
Сообщений: 2
Ratio: 8,175
94.94%
Откуда: Днiпро
ukraine.gif
спасибо за оригинальную звуковую дорожку и субтитры =)
tuxman
 
Стаж: 10 лет 7 мес.
Сообщений: 705
Ratio: 12,753
100%
Откуда: Пензенская обл.
russia.gif
bear1985 писал(а): Перейти к сообщению
а так же советую любителям этого фильма почитать оригинал, автор Стивен Кинг, книга так и называется Мертвая зона

Читал давно . Грустное окончание ... :огорчение:
mik373
Стаж: 9 лет 1 мес.
Сообщений: 88
Ratio: 21,257
100%
bear1985 писал(а): Перейти к сообщению
а так же советую любителям этого фильма почитать оригинал, автор Стивен Кинг, книга так и называется Мертвая зона

Книга отличная, в ней великолепно отражена американская избирательная система, какие люди в эту систему попадают и как их оттуда можно "вытравить", при этом книга читается очень легко.
fontan16
Стаж: 3 года 9 мес.
Сообщений: 306
Ratio: 1,703
10.74%
Откуда: Бостон
usa.gif
tuxman писал(а): Перейти к сообщению
bear1985 писал(а): Перейти к сообщению
а так же советую любителям этого фильма почитать оригинал, автор Стивен Кинг, книга так и называется Мертвая зона

Читал давно . Грустное окончание ... :огорчение:

Вы, наверное были недостаточно натренированы на чтении книг и просмотре фильмов на базе социалистического реализма если вас огорчает отсутствие хэппи энда. Там главный герой обязательно должен погибнуть в борьбе за дело коммунистической партии и социалистической отчизны, спасая трактор или мешок зерна.
А в этом фильме чувак погибает в борьбе с неприятным типом, пытающимся узурпировать власть и препятствовать американской демократии. Те же самые нотки, только другого цвета.
alexxfear
Стаж: 10 лет 4 мес.
Сообщений: 273
Ratio: 14,515
Поблагодарили: 92
29.27%
pirates.png
fontan16 писал(а): Перейти к сообщению
tuxman писал(а): Перейти к сообщению
bear1985 писал(а): Перейти к сообщению
а так же советую любителям этого фильма почитать оригинал, автор Стивен Кинг, книга так и называется Мертвая зона

Читал давно . Грустное окончание ... :огорчение:

Вы, наверное были недостаточно натренированы на чтении книг и просмотре фильмов на базе социалистического реализма если вас огорчает отсутствие хэппи энда. Там главный герой обязательно должен погибнуть в борьбе за дело коммунистической партии и социалистической отчизны, спасая трактор или мешок зерна.
А в этом фильме чувак погибает в борьбе с неприятным типом, пытающимся узурпировать власть и препятствовать американской демократии. Те же самые нотки, только другого цвета.


Печаль у тебя с головушкой, ох печаль
Docentsid
Стаж: 10 лет
Сообщений: 244
Ratio: 29,272
100%
ussr.gif
Столько лет прошло и ничего не изменилось )))
Показать сообщения:   
Начать новую тему   Ответить на тему    Торрент-трекер NNM-Club -> Классика кино и Старые фильмы до 90-х -> Старые Зарубежные Фильмы (HD*Rip/LQ, DVDRip, SATRip, VHSRip) Часовой пояс: GMT + 3
Страница 1 из 1