Классический форум-трекер
canvas not supported
Нас вместе: 4 071 399

VA - Pure... classical (2011) [FLAC|Lossless]<Classical>


 
 
RSS
Начать новую тему   Ответить на тему    Торрент-трекер NNM-Club -> Классика -> Классика (сборники) (Lossless)
Автор Сообщение
gvm55 ®
Зам. Куратора Музыки
Спонсор и Реставратор Клуба, Uploader 100+
Стаж: 10 лет
Сообщений: 4229
Ratio: 161,714
Раздал: 150,5 TB
Поблагодарили: 61479
100%
Откуда: SPb
nnm-club.gif
VA - Pure... classical (2011)
Страна-производитель диска: EU
Жанр: Classical
Год издания: 2011
Издатель (лейбл): Sony Music
Номер по каталогу: 88697915022

Аудиокодек: FLAC (*.flac)
Тип рипа: image+.cue
Битрейт аудио: lossless
Источник (релизер): Собственный рип
Наличие сканов: Да, полные
Продолжительность: 04:35:02


Описание: Сравнить этот сборник, пожалуй, можно с прогулкой по Эрмитажу. Что не картина (трек) - то шедевр. Из разных эпох и стран, и оркестровые и соло, прелюдии, фуги, концерты - все в прекраснейшем обрамлении (исполнении).
Из семи цветов состоит весь белый свет, а классическая музыка из бесчисленного количества оттенков, настроений и переживаний. Почувствуйте все это у себя внутри и насладитесь достоянием человечества!





Image
Продoлжитeльность - 01:08:43
Треклист:
01. Glenn Gould - Prelude No. 1 in C Major from 'The Well Tempered Clavier', Book I, BWV 846, f... (2:25)
02. Alicia De Larrocha - III. Rondo alla turca. Allegretto from Sonata No. 11 in A Major for Piano, K.... (3:44)
03. Vladimir Spivakov - Orchestral Suite No. 3 in D, BWV 1068: Air on the G-String (5:42)
04. Sir Thomas Beecham;John McCarthy - Messiah: Hallelujah! (3:36)
05. Robert Salter;Jane Carwardine;Jane Fenton;Paul Nicholson - Concerto grosso Op. 6 No. 4 in D: Adagio; Allegro (3:30)
06. Eugene Ormandy: Philadelphia Orchestra - Eine Kleine Nachtmusik (K. 525) - (Serenade in G Major): I. Allegro [Remaster... (4:17)
07. Andre Watts - Fur Elise, WoO. 59 (2:59)
08. Concord Quartet - Quartet No. 6: Variations On Canon in D (8:14)
09. Anthony Newman - Toccata & Fugue in D minor, BWV 565 (7:15)
10. Collegium Aureum - Water Music, HWV 348-350: Suite No. 2 in D major, HWV 349: Alla Hornpipe (4:10)
11. Mormon Tabernacle Choir - Jesu, Joy of Man's Desiring from Cantata No. 147, BWV 147 (3:12)
12. Tafelmusik - Reigen seliger Geister (The dance of the blessed spirits) for Flute, Strings ... (7:35)
13. Guildhall String Ensemble;Robert Salter;Paul Nicholson - Chacony in G Minor (5:52)
14. Artur Rubinstein - Sonata No. 14 in C-Sharp Minor, Op. 27 No. 2 'Moonlight': I. Adagio sostenuto... (6:13)
Код:

REM GENRE Classical
REM DATE 2011
REM DISCID B7101B0E
REM COMMENT "ExactAudioCopy v1.0b3"
PERFORMER "Various Artists"
TITLE "Pure... Classical CD1"
FILE "Various Artists - Pure... Classical CD1.flac" WAVE
  TRACK 01 AUDIO
    TITLE "Prelude No. 1 in C Major from 'The Well Tempered Clavier', Book I, BWV 846, f..."
    PERFORMER "Glenn Gould"
    INDEX 01 00:00:00
  TRACK 02 AUDIO
    TITLE "III. Rondo alla turca. Allegretto from Sonata No. 11 in A Major for Piano, K...."
    PERFORMER "Alicia De Larrocha"
    INDEX 00 02:23:44
    INDEX 01 02:24:45
  TRACK 03 AUDIO
    TITLE "Orchestral Suite No. 3 in D, BWV 1068: Air on the G-String"
    PERFORMER "Vladimir Spivakov"
    INDEX 00 06:07:53
    INDEX 01 06:08:54
  TRACK 04 AUDIO
    TITLE "Messiah: Hallelujah!"
    PERFORMER "Sir Thomas Beecham;John McCarthy"
    INDEX 00 11:49:46
    INDEX 01 11:50:47
  TRACK 05 AUDIO
    TITLE "Concerto grosso Op. 6 No. 4 in D: Adagio; Allegro"
    PERFORMER "Robert Salter;Jane Carwardine;Jane Fenton;Paul Nicholson"
    INDEX 00 15:25:42
    INDEX 01 15:26:28
  TRACK 06 AUDIO
    TITLE "Eine Kleine Nachtmusik (K. 525) - (Serenade in G Major): I. Allegro [Remaster..."
    PERFORMER "Eugene Ormandy: Philadelphia Orchestra"
    INDEX 00 18:54:41
    INDEX 01 18:56:02
  TRACK 07 AUDIO
    TITLE "Fur Elise, WoO. 59"
    PERFORMER "Andre Watts"
    INDEX 00 23:11:60
    INDEX 01 23:12:61
  TRACK 08 AUDIO
    TITLE "Quartet No. 6: Variations On Canon in D"
    PERFORMER "Concord Quartet"
    INDEX 00 26:11:10
    INDEX 01 26:12:11
  TRACK 09 AUDIO
    TITLE "Toccata & Fugue in D minor, BWV 565"
    PERFORMER "Anthony Newman"
    INDEX 00 34:25:31
    INDEX 01 34:26:32
  TRACK 10 AUDIO
    TITLE "Water Music, HWV 348-350: Suite No. 2 in D major, HWV 349: Alla Hornpipe"
    PERFORMER "Collegium Aureum"
    INDEX 00 41:40:38
    INDEX 01 41:40:71
  TRACK 11 AUDIO
    TITLE "Jesu, Joy of Man's Desiring from Cantata No. 147, BWV 147"
    PERFORMER "Mormon Tabernacle Choir"
    INDEX 00 45:50:20
    INDEX 01 45:51:18
  TRACK 12 AUDIO
    TITLE "Reigen seliger Geister (The dance of the blessed spirits) for Flute, Strings ..."
    PERFORMER "Tafelmusik"
    INDEX 00 49:01:56
    INDEX 01 49:02:56
  TRACK 13 AUDIO
    TITLE "Chacony in G Minor"
    PERFORMER "Guildhall String Ensemble;Robert Salter;Paul Nicholson"
    INDEX 00 56:37:40
    INDEX 01 56:38:04
  TRACK 14 AUDIO
    TITLE "Sonata No. 14 in C-Sharp Minor, Op. 27 No. 2 'Moonlight': I. Adagio sostenuto..."
    PERFORMER "Artur Rubinstein"
    INDEX 01 62:29:71
Код:

Exact Audio Copy V1.0 beta 3 from 29. August 2011

EAC extraction logfile from 29. April 2014, 2:53

Various Artists / Pure... Classical CD1

Used drive  : PIONEER BD-RW   BDR-206   Adapter: 5  ID: 0

Read mode               : Secure
Utilize accurate stream : Yes
Defeat audio cache      : Yes
Make use of C2 pointers : No

Read offset correction                      : 667
Overread into Lead-In and Lead-Out          : No
Fill up missing offset samples with silence : Yes
Delete leading and trailing silent blocks   : No
Null samples used in CRC calculations       : Yes
Used interface                              : Native Win32 interface for Win NT & 2000

Used output format              : User Defined Encoder
Selected bitrate                : 1024 kBit/s
Quality                         : High
Add ID3 tag                     : No
Command line compressor         : C:\Program Files (x86)\Exact Audio Copy\Flac\flac.exe
Additional command line options : -8 -V -T "ARTIST=%artist%" -T "TITLE=%title%" -T "ALBUM=%albumtitle%" -T "DATE=%year%" -T "TRACKNUMBER=%tracknr%" -T "GENRE=%genre%" -T "COMMENT=%comment%" -T "BAND=%albuminterpret%" -T "ALBUMARTIST=%albuminterpret%" -T "COMPOSER=%composer%" %haslyrics%--tag-from-file=LYRICS="%lyricsfile%"%haslyrics% -T "DISCNUMBER=%cdnumber%" -T "TOTALDISCS=%totalcds%" -T "TOTALTRACKS=%numtracks%" %hascover%--picture="%coverfile%"%hascover% %source% -o %dest%

TOC of the extracted CD

     Track |   Start  |  Length  | Start sector | End sector
    ---------------------------------------------------------
        1  |  0:00.00 |  2:24.45 |         0    |    10844
        2  |  2:24.45 |  3:44.09 |     10845    |    27653
        3  |  6:08.54 |  5:41.68 |     27654    |    53296
        4  | 11:50.47 |  3:35.56 |     53297    |    69477
        5  | 15:26.28 |  3:29.49 |     69478    |    85201
        6  | 18:56.02 |  4:16.59 |     85202    |   104460
        7  | 23:12.61 |  2:59.25 |    104461    |   117910
        8  | 26:12.11 |  8:14.21 |    117911    |   154981
        9  | 34:26.32 |  7:14.39 |    154982    |   187570
       10  | 41:40.71 |  4:10.22 |    187571    |   206342
       11  | 45:51.18 |  3:11.38 |    206343    |   220705
       12  | 49:02.56 |  7:35.23 |    220706    |   254853
       13  | 56:38.04 |  5:51.67 |    254854    |   281245
       14  | 62:29.71 |  6:13.10 |    281246    |   309230

Range status and errors

Selected range

     Filename D:\Сборники (Flac)\VA - Pure... classical (2011) 4CD (Flac+cue)\CD1\Various Artists - Pure... Classical CD1.wav

     Peak level 99.8 %
     Extraction speed 1.4 X
     Range quality 100.0 %
     Test CRC C21CA258
     Copy CRC C21CA258
     Copy OK

No errors occurred

AccurateRip summary

Track  1  accurately ripped (confidence 4)  [D9579432]  (AR v2)
Track  2  accurately ripped (confidence 4)  [25AF59F3]  (AR v2)
Track  3  accurately ripped (confidence 4)  [213BA8B8]  (AR v2)
Track  4  accurately ripped (confidence 4)  [8E12143F]  (AR v2)
Track  5  accurately ripped (confidence 4)  [E5AB9FB1]  (AR v2)
Track  6  accurately ripped (confidence 4)  [37D1E832]  (AR v2)
Track  7  accurately ripped (confidence 4)  [A0CB6C62]  (AR v2)
Track  8  accurately ripped (confidence 4)  [AD1B7652]  (AR v2)
Track  9  accurately ripped (confidence 4)  [7DC04410]  (AR v2)
Track 10  accurately ripped (confidence 4)  [AC695F67]  (AR v2)
Track 11  accurately ripped (confidence 4)  [0566E549]  (AR v2)
Track 12  accurately ripped (confidence 4)  [F78C88EB]  (AR v2)
Track 13  accurately ripped (confidence 4)  [7B8095FA]  (AR v2)
Track 14  accurately ripped (confidence 4)  [E561408D]  (AR v2)

All tracks accurately ripped

End of status report

---- CUETools DB Plugin V2.1.3

[CTDB TOCID: utBXddGb3h_bGmlh2lFsN.3cEnA-] found, Submit result: already submitted
[239771d7] (3/3) Accurately ripped

==== Log checksum 443E63F1803BEFAD3B8C1F60303B179A95FF616D476958018C565E5FA3DD3B4B ====
Код:

-----------------------

DON'T MODIFY THIS FILE

-----------------------

PERFORMER: auCDtect Task Manager, ver. 1.6.0 RC1 build 1.6.0.1
Copyright (c) 2008-2010 y-soft. All rights reserved
http://y-soft.org

ANALYZER: auCDtect: CD records authenticity detector, version 0.8.2
Copyright (c) 2004 Oleg Berngardt. All rights reserved.
Copyright (c) 2004 Alexander Djourik. All rights reserved.

FILE: Various Artists - Pure... Classical CD1.flac
  Size: 335247114 Hash: F557D541C1D6DE147DF5ADBC1597E3EF Accuracy: -m0
  Conclusion: CDDA 100%
  Signature: 5A5B8F63A66EB4DF28EC8BCA1D2F7F9D1A50BA97
Image
Продoлжитeльность -01:02:28
Трeклиcт:
01. Anthony Newman: Brandenburg Collegium - Brandenburg Concerto No. 3 in G Major, BWV 1048: I. [Allegro] [Instrumental] (5:43)
02. Isaac Stern - Concerto for Violin, Strings and Continuo in E Major, Op. 8 No. 1, RV 269 'La... (3:20)
03. Isaac Stern - Concerto for Violin, Strings and Continuo in G minor, Op.8 No.2, RV 315 'L'es... (2:33)
04. James Levine;Zdislawa Donat;Wiener Philharmoniker - Der Holle Rache (Aria) from Die Zauberflote, K. 620 (2:53)
05. Raymond Leppard: English Chamber Orchestra - Arrival of the Queen of Sheba from Solomon (3:05) (3:05)
06. Rudolf Serkin - Sonata No. 8 for Piano, Op. 13 'Pathetique' in C minor: I. Grave - Allegro di... (9:25)
07. Colin Davis - Le nozze di Figaro: Sinfonia (4:12)
08. Leopold Stokowski - Music for the Royal Fireworks: Overture (10:19)
09. George Szell: Cleveland Orchestra - Symphony No. 94 in G Major 'Surprise': II. Andante (6:25)
10. Charles Munch - Symphony No. 5 in C Minor, Op. 67: Allegro con brio (6:00)
11. Gerhard Schmidt-Gaden;Bruno Weil;Jorg Hering;Jeanne Lamon;Harry Van Der Kamp;... - Requiem, K. 626: II. Kyrie [Voice] (2:18)
12. George Szell - Symphony No. 9 in D Minor, Op. 125 ('Choral'): IV - Presto; Allegro ma non tr... (6:17)
Код:

REM GENRE Classical
REM DATE 2011
REM DISCID AA0EA40C
REM COMMENT "ExactAudioCopy v1.0b3"
PERFORMER "Various Artists"
TITLE "Pure... Classical CD2"
FILE "Various Artists - Pure... Classical CD2.flac" WAVE
  TRACK 01 AUDIO
    TITLE "Brandenburg Concerto No. 3 in G Major, BWV 1048: I. [Allegro] [Instrumental]"
    PERFORMER "Anthony Newman: Brandenburg Collegium"
    INDEX 01 00:00:00
  TRACK 02 AUDIO
    TITLE "Concerto for Violin, Strings and Continuo in E Major, Op. 8 No. 1, RV 269 'La..."
    PERFORMER "Isaac Stern"
    INDEX 00 05:41:22
    INDEX 01 05:42:67
  TRACK 03 AUDIO
    TITLE "Concerto for Violin, Strings and Continuo in G minor, Op.8 No.2, RV 315 'L'es..."
    PERFORMER "Isaac Stern"
    INDEX 00 09:01:56
    INDEX 01 09:02:41
  TRACK 04 AUDIO
    TITLE "Der Holle Rache (Aria) from Die Zauberflote, K. 620"
    PERFORMER "James Levine;Zdislawa Donat;Wiener Philharmoniker"
    INDEX 00 11:35:00
    INDEX 01 11:35:71
  TRACK 05 AUDIO
    TITLE "Arrival of the Queen of Sheba from Solomon (3:05)"
    PERFORMER "Raymond Leppard: English Chamber Orchestra"
    INDEX 00 14:27:44
    INDEX 01 14:28:49
  TRACK 06 AUDIO
    TITLE "Sonata No. 8 for Piano, Op. 13 'Pathetique' in C minor: I. Grave - Allegro di..."
    PERFORMER "Rudolf Serkin"
    INDEX 00 17:33:24
    INDEX 01 17:33:59
  TRACK 07 AUDIO
    TITLE "Le nozze di Figaro: Sinfonia"
    PERFORMER "Colin Davis"
    INDEX 00 26:58:05
    INDEX 01 26:59:05
  TRACK 08 AUDIO
    TITLE "Music for the Royal Fireworks: Overture"
    PERFORMER "Leopold Stokowski"
    INDEX 00 31:09:24
    INDEX 01 31:10:60
  TRACK 09 AUDIO
    TITLE "Symphony No. 94 in G Major 'Surprise': II. Andante"
    PERFORMER "George Szell: Cleveland Orchestra"
    INDEX 00 41:28:44
    INDEX 01 41:29:31
  TRACK 10 AUDIO
    TITLE "Symphony No. 5 in C Minor, Op. 67: Allegro con brio"
    PERFORMER "Charles Munch"
    INDEX 00 47:53:05
    INDEX 01 47:54:01
  TRACK 11 AUDIO
    TITLE "Requiem, K. 626: II. Kyrie [Voice]"
    PERFORMER "Gerhard Schmidt-Gaden;Bruno Weil;Jorg Hering;Jeanne Lamon;Harry Van Der Kamp;..."
    INDEX 00 53:52:24
    INDEX 01 53:53:47
  TRACK 12 AUDIO
    TITLE "Symphony No. 9 in D Minor, Op. 125 ('Choral'): IV - Presto; Allegro ma non tr..."
    PERFORMER "George Szell"
    INDEX 00 56:11:14
    INDEX 01 56:11:33

Код:

Exact Audio Copy V1.0 beta 3 from 29. August 2011

EAC extraction logfile from 28. April 2014, 23:42

Various Artists / Pure... Classical CD2

Used drive  : PIONEER BD-RW   BDR-206   Adapter: 5  ID: 0

Read mode               : Secure
Utilize accurate stream : Yes
Defeat audio cache      : Yes
Make use of C2 pointers : No

Read offset correction                      : 667
Overread into Lead-In and Lead-Out          : No
Fill up missing offset samples with silence : Yes
Delete leading and trailing silent blocks   : No
Null samples used in CRC calculations       : Yes
Used interface                              : Native Win32 interface for Win NT & 2000

Used output format              : User Defined Encoder
Selected bitrate                : 1024 kBit/s
Quality                         : High
Add ID3 tag                     : No
Command line compressor         : C:\Program Files (x86)\Exact Audio Copy\Flac\flac.exe
Additional command line options : -8 -V -T "ARTIST=%artist%" -T "TITLE=%title%" -T "ALBUM=%albumtitle%" -T "DATE=%year%" -T "TRACKNUMBER=%tracknr%" -T "GENRE=%genre%" -T "COMMENT=%comment%" -T "BAND=%albuminterpret%" -T "ALBUMARTIST=%albuminterpret%" -T "COMPOSER=%composer%" %haslyrics%--tag-from-file=LYRICS="%lyricsfile%"%haslyrics% -T "DISCNUMBER=%cdnumber%" -T "TOTALDISCS=%totalcds%" -T "TOTALTRACKS=%numtracks%" %hascover%--picture="%coverfile%"%hascover% %source% -o %dest%

TOC of the extracted CD

     Track |   Start  |  Length  | Start sector | End sector
    ---------------------------------------------------------
        1  |  0:00.00 |  5:42.67 |         0    |    25716
        2  |  5:42.67 |  3:19.49 |     25717    |    40690
        3  |  9:02.41 |  2:33.30 |     40691    |    52195
        4  | 11:35.71 |  2:52.53 |     52196    |    65148
        5  | 14:28.49 |  3:05.10 |     65149    |    79033
        6  | 17:33.59 |  9:25.21 |     79034    |   121429
        7  | 26:59.05 |  4:11.55 |    121430    |   140309
        8  | 31:10.60 | 10:18.46 |    140310    |   186705
        9  | 41:29.31 |  6:24.45 |    186706    |   215550
       10  | 47:54.01 |  5:59.46 |    215551    |   242521
       11  | 53:53.47 |  2:17.61 |    242522    |   252857
       12  | 56:11.33 |  6:16.55 |    252858    |   281112

Range status and errors

Selected range

     Filename D:\Сборники (Flac)\VA - Pure... classical (2011) 4CD (Flac+cue)\CD2\Various Artists - Pure... Classical CD2.wav

     Peak level 100.0 %
     Extraction speed 7.9 X
     Range quality 100.0 %
     Test CRC B35BCB40
     Copy CRC B35BCB40
     Copy OK

No errors occurred

AccurateRip summary

Track  1  accurately ripped (confidence 4)  [A81A7493]  (AR v2)
Track  2  accurately ripped (confidence 4)  [C36639A6]  (AR v2)
Track  3  accurately ripped (confidence 4)  [D1270CA4]  (AR v2)
Track  4  accurately ripped (confidence 4)  [50FBB9B2]  (AR v2)
Track  5  accurately ripped (confidence 4)  [72469ED7]  (AR v2)
Track  6  accurately ripped (confidence 4)  [F9A9E730]  (AR v2)
Track  7  accurately ripped (confidence 4)  [0892390E]  (AR v2)
Track  8  accurately ripped (confidence 4)  [B3B2A37A]  (AR v2)
Track  9  accurately ripped (confidence 4)  [158177C9]  (AR v2)
Track 10  accurately ripped (confidence 4)  [118491E9]  (AR v2)
Track 11  accurately ripped (confidence 4)  [81F31B4A]  (AR v2)
Track 12  accurately ripped (confidence 4)  [8A27ADFE]  (AR v2)

All tracks accurately ripped

End of status report

---- CUETools DB Plugin V2.1.3

[CTDB TOCID: Tl3KDmcR2BUPXcOITfJ1n7RROOs-] found, Submit result: already submitted
[0ff0b17b] (2/2) Accurately ripped

==== Log checksum 4FBC05E312E95A3C40C0A507F0EB2641431FD1FB73073D001FF14811917F7A87 ====
Код:

-----------------------

DON'T MODIFY THIS FILE

-----------------------

PERFORMER: auCDtect Task Manager, ver. 1.6.0 RC1 build 1.6.0.1
Copyright (c) 2008-2010 y-soft. All rights reserved
http://y-soft.org

ANALYZER: auCDtect: CD records authenticity detector, version 0.8.2
Copyright (c) 2004 Oleg Berngardt. All rights reserved.
Copyright (c) 2004 Alexander Djourik. All rights reserved.

FILE: Various Artists - Pure... Classical CD2.flac
  Size: 339346696 Hash: 181AA08BBFEACB9501BDD6D84B2EFB77 Accuracy: -m0
  Conclusion: CDDA 100%
  Signature: 17B7223B80186A149D1158B7C1CFEDAC85173246
Image
Продoлжитeльность -01:13:02
Трeклиcт:
01. Gerhard Oppitz - Kinderszenen, Op. 15: Von fremden Landern und Menschen (1:35)
02. Erich Leinsdorf - A Midsummer Nights Dream: Wedding March (4:25)
03. Artur Rubinstein - Fantasie-impromptu in C-sharp Minor, Op. 66 No. 4 (5:08)
04. Isaac Stern - Hungarian Dance No. 5 (2:38)
05. Eugene Ormandy - Peer Gynt, Suite No. 1, Op. 46: Morning (3:48)
06. Gustav Kuhn - Vltava (Moldau) (2:59)
07. George Szell: Cleveland Orchestra - Slavonic Dances, Op. 46: No. 1 in C Major (Presto) (3:53)
08. Gary Graffman - Pictures at an Exhibition: The Great Gate of Kiev (5:13)
09. Leonard Bernstein: New York Philharmonic Orchestra - Grand March from Aida (6:31)
10. Herbert Von Karajan - Parsifal - Ein Buhnenweihfestspiel: Dritter Akt: Enthullet den Gral (9:54)
11. Arthur Fiedler: Boston Pops Orchestra - William Tell Overture (3:05)
12. Luciano Pavarotti - Turandot: Act III: Scene 1: Nessun dorma (2:57)
13. Royal Opera House Orchestra - Swan Lake: No. 29 Scene finale (5:15)
14. Philippe Entremont - Deux Arabesques: No. 1: Andantino con moto (3:28)
15. Gerhard Oppitz - Pieces for Piano, Op. 118: Intermezzo in A major, Op. 118/2 (6:41)
16. Evelyn Glennie - Gymnopedie No. 1 (3:03)
17. Arthur Fiedler - Aquarium (2:28)
Код:

REM GENRE Classical
REM DATE 2011
REM DISCID F3111D11
REM COMMENT "ExactAudioCopy v1.0b3"
PERFORMER "Various Artists"
TITLE "Pure... Classical CD3"
FILE "Various Artists - Pure... Classical CD3.flac" WAVE
  TRACK 01 AUDIO
    TITLE "Kinderszenen, Op. 15: Von fremden Landern und Menschen"
    PERFORMER "Gerhard Oppitz"
    INDEX 01 00:00:00
  TRACK 02 AUDIO
    TITLE "A Midsummer Nights Dream: Wedding March"
    PERFORMER "Erich Leinsdorf"
    INDEX 00 01:33:34
    INDEX 01 01:35:10
  TRACK 03 AUDIO
    TITLE "Fantasie-impromptu in C-sharp Minor, Op. 66 No. 4"
    PERFORMER "Artur Rubinstein"
    INDEX 00 05:58:59
    INDEX 01 06:00:35
  TRACK 04 AUDIO
    TITLE "Hungarian Dance No. 5"
    PERFORMER "Isaac Stern"
    INDEX 00 11:06:73
    INDEX 01 11:08:49
  TRACK 05 AUDIO
    TITLE "Peer Gynt, Suite No. 1, Op. 46: Morning"
    PERFORMER "Eugene Ormandy"
    INDEX 00 13:46:07
    INDEX 01 13:46:67
  TRACK 06 AUDIO
    TITLE "Vltava (Moldau)"
    PERFORMER "Gustav Kuhn"
    INDEX 00 17:33:13
    INDEX 01 17:34:63
  TRACK 07 AUDIO
    TITLE "Slavonic Dances, Op. 46: No. 1 in C Major (Presto)"
    PERFORMER "George Szell: Cleveland Orchestra"
    INDEX 00 20:32:31
    INDEX 01 20:34:07
  TRACK 08 AUDIO
    TITLE "Pictures at an Exhibition: The Great Gate of Kiev"
    PERFORMER "Gary Graffman"
    INDEX 00 24:26:15
    INDEX 01 24:27:21
  TRACK 09 AUDIO
    TITLE "Grand March from Aida"
    PERFORMER "Leonard Bernstein: New York Philharmonic Orchestra"
    INDEX 00 29:38:11
    INDEX 01 29:39:62
  TRACK 10 AUDIO
    TITLE "Parsifal - Ein Buhnenweihfestspiel: Dritter Akt: Enthullet den Gral"
    PERFORMER "Herbert Von Karajan"
    INDEX 00 36:09:48
    INDEX 01 36:11:22
  TRACK 11 AUDIO
    TITLE "William Tell Overture"
    PERFORMER "Arthur Fiedler: Boston Pops Orchestra"
    INDEX 00 46:03:40
    INDEX 01 46:05:10
  TRACK 12 AUDIO
    TITLE "Turandot: Act III: Scene 1: Nessun dorma"
    PERFORMER "Luciano Pavarotti"
    INDEX 00 49:09:15
    INDEX 01 49:10:09
  TRACK 13 AUDIO
    TITLE "Swan Lake: No. 29 Scene finale"
    PERFORMER "Royal Opera House Orchestra"
    INDEX 00 52:05:17
    INDEX 01 52:06:67
  TRACK 14 AUDIO
    TITLE "Deux Arabesques: No. 1: Andantino con moto"
    PERFORMER "Philippe Entremont"
    INDEX 00 57:21:18
    INDEX 01 57:21:36
  TRACK 15 AUDIO
    TITLE "Pieces for Piano, Op. 118: Intermezzo in A major, Op. 118/2"
    PERFORMER "Gerhard Oppitz"
    INDEX 00 60:48:19
    INDEX 01 60:49:70
  TRACK 16 AUDIO
    TITLE "Gymnopedie No. 1"
    PERFORMER "Evelyn Glennie"
    INDEX 00 67:29:43
    INDEX 01 67:30:50
  TRACK 17 AUDIO
    TITLE "Aquarium"
    PERFORMER "Arthur Fiedler"
    INDEX 00 70:32:52
    INDEX 01 70:34:01
Код:

Exact Audio Copy V1.0 beta 3 from 29. August 2011

EAC extraction logfile from 28. April 2014, 0:26

Various Artists / Pure... Classical CD3

Used drive  : PIONEER BD-RW   BDR-206   Adapter: 5  ID: 0

Read mode               : Secure
Utilize accurate stream : Yes
Defeat audio cache      : Yes
Make use of C2 pointers : No

Read offset correction                      : 667
Overread into Lead-In and Lead-Out          : No
Fill up missing offset samples with silence : Yes
Delete leading and trailing silent blocks   : No
Null samples used in CRC calculations       : Yes
Used interface                              : Native Win32 interface for Win NT & 2000

Used output format              : User Defined Encoder
Selected bitrate                : 1024 kBit/s
Quality                         : High
Add ID3 tag                     : No
Command line compressor         : C:\Program Files (x86)\Exact Audio Copy\Flac\flac.exe
Additional command line options : -8 -V -T "ARTIST=%artist%" -T "TITLE=%title%" -T "ALBUM=%albumtitle%" -T "DATE=%year%" -T "TRACKNUMBER=%tracknr%" -T "GENRE=%genre%" -T "COMMENT=%comment%" -T "BAND=%albuminterpret%" -T "ALBUMARTIST=%albuminterpret%" -T "COMPOSER=%composer%" %haslyrics%--tag-from-file=LYRICS="%lyricsfile%"%haslyrics% -T "DISCNUMBER=%cdnumber%" -T "TOTALDISCS=%totalcds%" -T "TOTALTRACKS=%numtracks%" %hascover%--picture="%coverfile%"%hascover% %source% -o %dest%

TOC of the extracted CD

     Track |   Start  |  Length  | Start sector | End sector
    ---------------------------------------------------------
        1  |  0:00.00 |  1:35.10 |         0    |     7134
        2  |  1:35.10 |  4:25.25 |      7135    |    27034
        3  |  6:00.35 |  5:08.14 |     27035    |    50148
        4  | 11:08.49 |  2:38.18 |     50149    |    62016
        5  | 13:46.67 |  3:47.71 |     62017    |    79112
        6  | 17:34.63 |  2:59.19 |     79113    |    92556
        7  | 20:34.07 |  3:53.14 |     92557    |   110045
        8  | 24:27.21 |  5:12.41 |    110046    |   133486
        9  | 29:39.62 |  6:31.35 |    133487    |   162846
       10  | 36:11.22 |  9:53.63 |    162847    |   207384
       11  | 46:05.10 |  3:04.74 |    207385    |   221258
       12  | 49:10.09 |  2:56.58 |    221259    |   234516
       13  | 52:06.67 |  5:14.44 |    234517    |   258110
       14  | 57:21.36 |  3:28.34 |    258111    |   273744
       15  | 60:49.70 |  6:40.55 |    273745    |   303799
       16  | 67:30.50 |  3:03.26 |    303800    |   317550
       17  | 70:34.01 |  2:27.58 |    317551    |   328633

Range status and errors

Selected range

     Filename D:\Сборники (Flac)\VA - Pure... classical (2011) 4CD (Flac+cue)\CD3\Various Artists - Pure... Classical CD3.wav

     Peak level 100.0 %
     Extraction speed 8.1 X
     Range quality 99.9 %
     Test CRC 47F8B6C1
     Copy CRC 47F8B6C1
     Copy OK

No errors occurred

AccurateRip summary

Track  1  accurately ripped (confidence 3)  [17F57D77]  (AR v2)
Track  2  accurately ripped (confidence 4)  [5C982199]  (AR v2)
Track  3  accurately ripped (confidence 4)  [0FA7295B]  (AR v2)
Track  4  accurately ripped (confidence 4)  [97C17B7F]  (AR v2)
Track  5  accurately ripped (confidence 4)  [0A1FC731]  (AR v2)
Track  6  accurately ripped (confidence 4)  [02E57C56]  (AR v2)
Track  7  accurately ripped (confidence 4)  [2BEE9095]  (AR v2)
Track  8  accurately ripped (confidence 4)  [D9A0990A]  (AR v2)
Track  9  accurately ripped (confidence 4)  [07121FB3]  (AR v2)
Track 10  accurately ripped (confidence 4)  [9A4FFE45]  (AR v2)
Track 11  accurately ripped (confidence 4)  [7B94B8C6]  (AR v2)
Track 12  accurately ripped (confidence 4)  [C5F514C3]  (AR v2)
Track 13  accurately ripped (confidence 4)  [5E8E4BAB]  (AR v2)
Track 14  accurately ripped (confidence 4)  [15401F7A]  (AR v2)
Track 15  accurately ripped (confidence 4)  [8F154715]  (AR v2)
Track 16  accurately ripped (confidence 4)  [03D0768F]  (AR v2)
Track 17  accurately ripped (confidence 4)  [BAA26C61]  (AR v2)

All tracks accurately ripped

End of status report

---- CUETools DB Plugin V2.1.3

[CTDB TOCID: R2N1pxcaU1NmPLg.M9E3CRYDADA-] found, Submit result: R2N1pxcaU1NmPLg.M9E3CRYDADA- has been confirmed
[48cb82ad] (1/1) Accurately ripped

==== Log checksum 656D80F2DC04C62478628388EAED2830C63F50642E35E12B2219A8105EC65708 ====
Код:

-----------------------

DON'T MODIFY THIS FILE

-----------------------

PERFORMER: auCDtect Task Manager, ver. 1.6.0 RC1 build 1.6.0.1
Copyright (c) 2008-2010 y-soft. All rights reserved
http://y-soft.org

ANALYZER: auCDtect: CD records authenticity detector, version 0.8.2
Copyright (c) 2004 Oleg Berngardt. All rights reserved.
Copyright (c) 2004 Alexander Djourik. All rights reserved.

FILE: Various Artists - Pure... Classical CD3.flac
  Size: 344783114 Hash: DE705A20B1DCF5EC4F0BBC8EBF58A654 Accuracy: -m0
  Conclusion: CDDA 100%
  Signature: 62AB1AEFE2B32630312D8A9CD5B931A45F7566E4
Image
Продoлжитeльность -01:10:49
Трeклиcт:
01. Fritz Reiner - Also sprach Zarathustra, Op. 30: Sunrise (1:33)
02. Leonard Bernstein: New York Philharmonic Orchestra - Fantasia on Greensleeves (5:02)
03. Leonard Bernstein: New York Philharmonic Orchestra - The Planets, Op. 32: Mars, the Bringer of War. Allegro (6:33)
04. Leonard Bernstein: New York Philharmonic Orchestra - The Planets, Op. 32: Jupiter, the Bringer of Jollity. Allegro giocoso - Andan... (8:15)
05. Vladimir Feltsman - Prelude in G-sharp minor, Op. 32, No. 12 (3:10)
06. Xavier De Maistre - Valses Poeticos H. 147, DLR 7:8: Preludio: Vivace (1:23)
07. Xavier De Maistre - Valses Poeticos H. 147, DLR 7:8: No. 1: Melodico (1:38)
08. Philadelphia Orchestra - Cancan from Ganti Parisienne [Instrumental] (2:00)
09. Dick Hyman - Maple Leaf Rag (2:27)
10. Leonard Slatkin - Fanfare for the Common Man (3:04)
11. Eugene Ormandy - Adagio For Strings, Op. 11 (7:43)
12. Seiji Ozawa - Carmina Burana: O fortuna (2:36)
13. Pierre Monteux - Petrushka: Scene I: The Shrove-Tide Fair: Vivace (5:38)
14. New York Philharmonic Orchestra - Peter's March and Finale from Peter and the Wolf, Op. 67 [Excerpt] (3:17)
15. Dmitri Kitaenko - Suite No. 1 for Jazz Orchestra (1934): Waltz (2:18)
16. Leonard Bernstein: New York Philharmonic Orchestra - Atmospheres (6:53)
17. Aaron Copland - Music for Movies: Grovers Corners from 'Our Town' (3:11)
18. Douglas Perry - Evening Song from Satyagraha (4:09)
Код:

REM GENRE Classical
REM DATE 2011
REM DISCID 0D109912
REM COMMENT "ExactAudioCopy v1.0b3"
PERFORMER "Various Artists"
TITLE "Pure... Claasical CD4"
FILE "Various Artists - Pure... Claasical CD4.flac" WAVE
  TRACK 01 AUDIO
    TITLE "Also sprach Zarathustra, Op. 30: Sunrise"
    PERFORMER "Fritz Reiner"
    INDEX 01 00:00:00
  TRACK 02 AUDIO
    TITLE "Fantasia on Greensleeves"
    PERFORMER "Leonard Bernstein: New York Philharmonic Orchestra"
    INDEX 00 01:31:57
    INDEX 01 01:32:50
  TRACK 03 AUDIO
    TITLE "The Planets, Op. 32: Mars, the Bringer of War. Allegro"
    PERFORMER "Leonard Bernstein: New York Philharmonic Orchestra"
    INDEX 00 06:33:32
    INDEX 01 06:34:33
  TRACK 04 AUDIO
    TITLE "The Planets, Op. 32: Jupiter, the Bringer of Jollity. Allegro giocoso - Andan..."
    PERFORMER "Leonard Bernstein: New York Philharmonic Orchestra"
    INDEX 00 13:06:32
    INDEX 01 13:07:33
  TRACK 05 AUDIO
    TITLE "Prelude in G-sharp minor, Op. 32, No. 12"
    PERFORMER "Vladimir Feltsman"
    INDEX 00 21:21:69
    INDEX 01 21:22:70
  TRACK 06 AUDIO
    TITLE "Valses Poeticos H. 147, DLR 7:8: Preludio: Vivace"
    PERFORMER "Xavier De Maistre"
    INDEX 00 24:31:73
    INDEX 01 24:32:74
  TRACK 07 AUDIO
    TITLE "Valses Poeticos H. 147, DLR 7:8: No. 1: Melodico"
    PERFORMER "Xavier De Maistre"
    INDEX 00 25:54:55
    INDEX 01 25:55:56
  TRACK 08 AUDIO
    TITLE "Cancan from Ganti Parisienne [Instrumental]"
    PERFORMER "Philadelphia Orchestra"
    INDEX 00 27:32:40
    INDEX 01 27:33:41
  TRACK 09 AUDIO
    TITLE "Maple Leaf Rag"
    PERFORMER "Dick Hyman"
    INDEX 00 29:33:00
    INDEX 01 29:34:01
  TRACK 10 AUDIO
    TITLE "Fanfare for the Common Man"
    PERFORMER "Leonard Slatkin"
    INDEX 00 31:59:68
    INDEX 01 32:00:69
  TRACK 11 AUDIO
    TITLE "Adagio For Strings, Op. 11"
    PERFORMER "Eugene Ormandy"
    INDEX 00 35:03:64
    INDEX 01 35:04:65
  TRACK 12 AUDIO
    TITLE "Carmina Burana: O fortuna"
    PERFORMER "Seiji Ozawa"
    INDEX 00 42:47:03
    INDEX 01 42:48:03
  TRACK 13 AUDIO
    TITLE "Petrushka: Scene I: The Shrove-Tide Fair: Vivace"
    PERFORMER "Pierre Monteux"
    INDEX 00 45:22:47
    INDEX 01 45:23:47
  TRACK 14 AUDIO
    TITLE "Peter's March and Finale from Peter and the Wolf, Op. 67 [Excerpt]"
    PERFORMER "New York Philharmonic Orchestra"
    INDEX 00 51:00:33
    INDEX 01 51:01:34
  TRACK 15 AUDIO
    TITLE "Suite No. 1 for Jazz Orchestra (1934): Waltz"
    PERFORMER "Dmitri Kitaenko"
    INDEX 00 54:16:72
    INDEX 01 54:17:73
  TRACK 16 AUDIO
    TITLE "Atmospheres"
    PERFORMER "Leonard Bernstein: New York Philharmonic Orchestra"
    INDEX 00 56:34:39
    INDEX 01 56:35:40
  TRACK 17 AUDIO
    TITLE "Music for Movies: Grovers Corners from 'Our Town'"
    PERFORMER "Aaron Copland"
    INDEX 00 63:27:62
    INDEX 01 63:28:63
  TRACK 18 AUDIO
    TITLE "Evening Song from Satyagraha"
    PERFORMER "Douglas Perry"
    INDEX 00 66:39:05
    INDEX 01 66:40:06
Код:

Exact Audio Copy V1.0 beta 3 from 29. August 2011

EAC extraction logfile from 28. April 2014, 21:48

Various Artists / Pure... Claasical CD4

Used drive  : PIONEER BD-RW   BDR-206   Adapter: 5  ID: 0

Read mode               : Secure
Utilize accurate stream : Yes
Defeat audio cache      : Yes
Make use of C2 pointers : No

Read offset correction                      : 667
Overread into Lead-In and Lead-Out          : No
Fill up missing offset samples with silence : Yes
Delete leading and trailing silent blocks   : No
Null samples used in CRC calculations       : Yes
Used interface                              : Native Win32 interface for Win NT & 2000

Used output format              : User Defined Encoder
Selected bitrate                : 1024 kBit/s
Quality                         : High
Add ID3 tag                     : No
Command line compressor         : C:\Program Files (x86)\Exact Audio Copy\Flac\flac.exe
Additional command line options : -8 -V -T "ARTIST=%artist%" -T "TITLE=%title%" -T "ALBUM=%albumtitle%" -T "DATE=%year%" -T "TRACKNUMBER=%tracknr%" -T "GENRE=%genre%" -T "COMMENT=%comment%" -T "BAND=%albuminterpret%" -T "ALBUMARTIST=%albuminterpret%" -T "COMPOSER=%composer%" %haslyrics%--tag-from-file=LYRICS="%lyricsfile%"%haslyrics% -T "DISCNUMBER=%cdnumber%" -T "TOTALDISCS=%totalcds%" -T "TOTALTRACKS=%numtracks%" %hascover%--picture="%coverfile%"%hascover% %source% -o %dest%

TOC of the extracted CD

     Track |   Start  |  Length  | Start sector | End sector
    ---------------------------------------------------------
        1  |  0:00.00 |  1:32.50 |         0    |     6949
        2  |  1:32.50 |  5:01.58 |      6950    |    29582
        3  |  6:34.33 |  6:33.00 |     29583    |    59057
        4  | 13:07.33 |  8:15.37 |     59058    |    96219
        5  | 21:22.70 |  3:10.04 |     96220    |   110473
        6  | 24:32.74 |  1:22.57 |    110474    |   116680
        7  | 25:55.56 |  1:37.60 |    116681    |   124015
        8  | 27:33.41 |  2:00.35 |    124016    |   133050
        9  | 29:34.01 |  2:26.68 |    133051    |   144068
       10  | 32:00.69 |  3:03.71 |    144069    |   157864
       11  | 35:04.65 |  7:43.13 |    157865    |   192602
       12  | 42:48.03 |  2:35.44 |    192603    |   204271
       13  | 45:23.47 |  5:37.62 |    204272    |   229608
       14  | 51:01.34 |  3:16.39 |    229609    |   244347
       15  | 54:17.73 |  2:17.42 |    244348    |   254664
       16  | 56:35.40 |  6:53.23 |    254665    |   285662
       17  | 63:28.63 |  3:11.18 |    285663    |   300005
       18  | 66:40.06 |  4:09.11 |    300006    |   318691

Range status and errors

Selected range

     Filename D:\Сборники (Flac)\VA - Pure... classical (2011) 4CD (Flac+cue)\CD4\Various Artists - Pure... Claasical CD4.wav

     Peak level 100.0 %
     Extraction speed 8.1 X
     Range quality 100.0 %
     Test CRC 58A2E414
     Copy CRC 58A2E414
     Copy OK

No errors occurred

AccurateRip summary

Track  1  accurately ripped (confidence 4)  [9A5C0F9B]  (AR v2)
Track  2  accurately ripped (confidence 4)  [7D6636AA]  (AR v2)
Track  3  accurately ripped (confidence 4)  [9C04B4BE]  (AR v2)
Track  4  accurately ripped (confidence 4)  [FB3CE3BE]  (AR v2)
Track  5  accurately ripped (confidence 4)  [2BDC93DC]  (AR v2)
Track  6  accurately ripped (confidence 4)  [4A014383]  (AR v2)
Track  7  accurately ripped (confidence 4)  [A3C15A0F]  (AR v2)
Track  8  accurately ripped (confidence 4)  [22945ACC]  (AR v2)
Track  9  accurately ripped (confidence 4)  [39EBD2CC]  (AR v2)
Track 10  accurately ripped (confidence 4)  [F73C9746]  (AR v2)
Track 11  accurately ripped (confidence 4)  [AD89013D]  (AR v2)
Track 12  accurately ripped (confidence 4)  [055E13AC]  (AR v2)
Track 13  accurately ripped (confidence 4)  [044F3483]  (AR v2)
Track 14  accurately ripped (confidence 4)  [39EE5341]  (AR v2)
Track 15  accurately ripped (confidence 4)  [0B967D01]  (AR v2)
Track 16  accurately ripped (confidence 4)  [3C0310DC]  (AR v2)
Track 17  accurately ripped (confidence 4)  [173FC4F5]  (AR v2)
Track 18  accurately ripped (confidence 4)  [6CBB3E96]  (AR v2)

All tracks accurately ripped

End of status report

---- CUETools DB Plugin V2.1.3

[CTDB TOCID: gI5VKHnrUNGAIRb68gZThKUcWj8-] found, Submit result: gI5VKHnrUNGAIRb68gZThKUcWj8- has been confirmed
[a0000e3a] (1/1) Accurately ripped

==== Log checksum C5BD688FE38013B70CE0ADA2C672CF348F96531557622C8A43F3A2275AB176A7 ====
Код:

-----------------------

DON'T MODIFY THIS FILE

-----------------------

PERFORMER: auCDtect Task Manager, ver. 1.6.0 RC1 build 1.6.0.1
Copyright (c) 2008-2010 y-soft. All rights reserved
http://y-soft.org

ANALYZER: auCDtect: CD records authenticity detector, version 0.8.2
Copyright (c) 2004 Oleg Berngardt. All rights reserved.
Copyright (c) 2004 Alexander Djourik. All rights reserved.

FILE: Various Artists - Pure... Claasical CD4.flac
  Size: 350706226 Hash: 4DE1694F6C45D7FC986E65DC2C92317E Accuracy: -m0
  Conclusion: CDDA 100%
  Signature: 0BB1A1368871759E9D0A81F858AC40A4E8FCFDF9
Серия Pure... на NNM-Club

Время раздачи: 24/7 - до первых 15 сидов, далее по необходимости.


Поглощение/вытеснение
Только с согласия релизера

DesideriuM
[NNM-Club.me]_VA - Pure... classical (2011) 4CD (Flac+cue).torrent
 Торрент: Платиновая раздача  Зарегистрирован
 
Скачать


Примагнититься
 Зарегистрирован:   06 Май 2014 18:36:50
 Размер:   1,3 GB  (
 Рейтинг:   4,9 (Голосов: 76)
 Поблагодарили:   326
 Проверка:   Оформление проверено модератором 07 Май 2014 08:10:33
Как cкачать  ·  Как раздать  ·  Правильно оформить  ·  Поднять ратио!  

_________________
Исправил релиз - напиши мне в со ссылкой на него.
Мартин Полуэктович
Стаж: 6 лет 4 мес.
Сообщений: 19
Ratio: 13,742
100%
ukraine.gif
Спасибо, товарищ
gvm55 ®
Зам. Куратора Музыки
Спонсор и Реставратор Клуба, Uploader 100+
Стаж: 10 лет
Сообщений: 4229
Ratio: 161,714
Раздал: 150,5 TB
Поблагодарили: 61479
100%
Откуда: SPb
nnm-club.gif
Мартин Полуэктович писал(а): Перейти к сообщению
Спасибо, товарищ

Не за что. Слушайте хорошую музыку. Всегда!

_________________
Исправил релиз - напиши мне в со ссылкой на него.
Glebany
 
Стаж: 8 лет 2 мес.
Сообщений: 173
Ratio: 75,405
Поблагодарили: 4758
100%
благодарствую!
fufanon
Стаж: 8 лет
Сообщений: 1
Ratio: 2,088
45.25%
Откуда: yohska
russia.gif
Жизненно красиво. Благодарю.
Показать сообщения:   
Начать новую тему   Ответить на тему    Торрент-трекер NNM-Club -> Классика -> Классика (сборники) (Lossless) Часовой пояс: GMT + 3
Страница 1 из 1