Классический форум-трекер
canvas not supported
Нас вместе: 4 103 350

Теория Большого Взрыва / The Big Bang Theory (Сезон: 1-6) [Кураж-Бамбей] (2007-2013) WEB-DLRip, BDRip [480p] iPhone/iPad


 
 
RSS
Начать новую тему   Ответить на тему    Торрент-трекер NNM-Club -> Аудио и Видео -> Зарубежное видео для устройств Apple
Автор Сообщение
Stroller21 ®
Стаж: 6 лет 7 мес.
Сообщений: 6
Поблагодарили: 446
0%
Теория Большого Взрыва / The Big Bang Theory (Сезон: 1-6) [Кураж-Бамбей] (2007-2013) WEB-DLRip, BDRip [480p] iPhone/iPad
The Big Bang Theory


Год выпуска: 2007-2013 | Страна: США | Студия: CBS | Жанр: комедия | Продолжительность: 135 х ~00:20:00 | Рейтинг КиноПоиск: 8.798 | Рейтинг IMDb: 8.60
Перевод: Одноголосый закадровый Кураж-Бамбей, Профессиональный (двухголосый закадровый) НТВ, Профессиональный (многоголосый закадровый) СТС
Оригинальная аудиодорожка: есть
Язык субтитров: Русский, Английский
Режиссёр: Марк Сендроуски, Питер Чакос
Сценарий: Чак Лорри, Билл Праду, Стивен Моларо
Продюссер: Чак Лорри, Билл Праду, Мэри Т. Куигли
В ролях: Джонни Галэки, Джим Парсонс, Кейли Куоко, Саймон Хелберг, Кунал Нэйэр, Мелисса Рауш, Майем Биэлик, Кэрол Энн Сьюзи, Кевин Суссман, Арти Манн и др.
Сезон: 1-6
Серии: 1-135

Описание:
Два блестящих физика, Леонард и Шелдон, «великие умы», которые понимают, как «работает вселенная». Но их гениальность ничуть не помогает им общаться с людьми, особенно с женщинами. Всё начинает меняться, когда напротив них поселяется красавица Пенни.

Когда Леонард и Шелдон встречают Пенни, Леонард сразу же начинает интересоваться ею. Он видит в общении с Пенни огромную перспективу, вплоть до любви, однако Шелдон понимает, что мечтам его друга не суждено сбыться.

Стоит также отметить пару странных друзей этих физиков: Воловец, который любит употреблять фразы на разных языках, включая русский, и Раджеш Кутрапали, теряющий дар речи при виде женщин.



Все раздачи сериала в разделе
Качество исходника: WEB-DL 720p/1080р, BDRemux (3 сезон)
Качество: WEB-DLRip, BDRip (3 сезон)
Разрешение: 480p
Формат: M4V
Видео: AVC, 640х480@853х480, 16:9, 1500 Кбит/сек, 23,976 кадра/сек
Аудио №1: AAC, 2 канала, 48,0 КГц, 128 Кбит/сек - Кураж-Бамбей (1-6 сезон)
Аудио №2: AAC, 2 канала, 48,0 КГц, 128 Кбит/сек - НТВ (только 1 сезон), BBC Saint-Petersburg (только 5 сезон)
Аудио №3: AAC, 2 канала, 48,0 КГц, 128 Кбит/сек - СТС (1-3 сезон)
Аудио №4: AAC, 2 канала, 48,0 КГц, 128 Кбит/сек - Английский, оригинальная
Код:
Media Type: TV Show
Sort Name: Pilot
XID: WarnerBrosEnt:vendor_id:883316649244
Content ID: 264537239
Copyright: ©2012 CBS Interactive. All rights reserved.
ScreenWriters: Чак Лорри, Ричард Розенсток, Стефен Энджел
Producers: Чак Лорри, Ли Аронсон, Стив Холлэнд
Director: Марк Сендроуски, Питер Чакос, Энтони Джозеф Рич
Cast: Джонни Галэки, Джим Парсонс, Кейли Куоко, Саймон Хелберг, Кунал Нэйэр, Мелисса Ройч, Кэрол Энн Сьюзи, Майем Биэлик, Арти Манн, Кевин Суссман и другие.
Long Description: Пенни въехала в свою квартиру и познакомилась с Шелдоном и Леонардом, а также с Говардом и Раджем.
Description: Пенни въехала в свою квартиру и познакомилась с Шелдоном и Леонардом, а также с Говардом и Раджем.
TV Season: 1
TV Episode ID: 101
TV Network: CBS
TV Episode #: 1
TV Show: Теория большого взрыва (The Big Bang Theory)
Disk #: 1/1
Track #: 1/17
Release Date: 2007-09-24T07:00:00Z
Genre: Comedy
Album: The Big Bang Theory
Album Artist: The Big Bang Theory
Artist: Теория большого взрыва (The Big Bang Theory)
Name: Pilot
Comments: Stroller
Sort Artist: Big Bang Theory
Sort Album: The Big Bang Theory, Season 1
Sort TV Show: Теория большого взрыва (The Big Bang Theory)
Gapless: Нет
iTunes Account Type: 255
iTunes Country: 0
Artist ID: 264032462
Playlist ID: 561103928
Genre ID: 4000
Код:
Общее
 Полное имя                               : E:\Раздачи\Видео\The Big Bang Theory\The Big Bang Theory (480p)\Season 1\The.big.bang.theory.s01e01.WEB-DLRip.480p.3xRUS.ENG.Subs.Stroller.m4v
 Формат                                   : MPEG-4
 Идентификатор кодека                     : M4V
 Размер файла                             : 333 Мбайт
 Продолжительность                        : 22 м.
 Режим общего битрейта                    : Переменный
 Общий поток                              : 2030 Кбит/сек
 Название фильма                          : Pilot
 Альбом                                   : The Big Bang Theory
 Альбом/Исполнитель                       : The Big Bang Theory
 Часть/Положение                          : 1
 Часть/Всего                              : 1
 Трек/Положение                           : 1
 Трек/Всего                               : 17
 Исполнитель                              : Теория большого взрыва (The Big Bang Theory)
 Жанр                                     : Comedy
 Дата записи                              : UTC 2007-09-24 07:00:00
 Дата кодирования                         : UTC 2013-01-19 07:47:52
 Дата пометки                             : UTC 2013-01-19 07:48:42
 Правообладатель                          : ©2012 CBS Interactive. All rights reserved.
 Обложка                                  : Yes
 Примечание                               : Stroller
 tvsh                                     : Теория большого взрыва (The Big Bang Theory)
 tvnn                                     : CBS
 tven                                     : 101
 tvsn                                     : 1
 tves                                     : 1
 sonm                                     : Pilot
 soar                                     : Big Bang Theory
 soal                                     : The Big Bang Theory, Season 1
 sosn                                     : Теория большого взрыва (The Big Bang Theory)
 desc                                     : Пенни въехала в свою квартиру и познакомилась с Шелдоном и Леонардом, а также с Говардом и Раджем.
 ldes                                     : Пенни въехала в свою квартиру и познакомилась с Шелдоном и Леонардом, а также с Говардом и Раджем.
 hdvd                                     : 0
 stik                                     : 10
 akID                                     : -1
 sfID                                     : 0
 cnID                                     : 264537239
 atID                                     : 264032462
 plID                                     : 561103928
 geID                                     : 4000
 xid                                      : WarnerBrosEnt:vendor_id:883316649244
 iTunEXTC                                 : us-tv|TV-PG|400|
 iTunMOVI                                 : <?xml version="1.0" encoding="UTF-8"?> / <!DOCTYPE plist PUBLIC "-//Apple//DTD PLIST 1.0//EN" "http://www.apple.com/DTDs/PropertyList-1.0.dtd"> / <plist version="1.0"> /  <dict> /   <key>cast</key> /   <array> /    <dict> /     <key>name</key> /     <string>Джонни Галэки</string> /    </dict> /    <dict> /     <key>name</key> /     <string>Джим Парсонс</string> /    </dict> /    <dict> /     <key>name</key> /     <string>Кейли Куоко</string> /    </dict> /    <dict> /     <key>name</key> /     <string>Саймон Хелберг</string> /    </dict> /    <dict> /     <key>name</key> /     <string>Кунал Нэйэр</string> /    </dict> /    <dict> /     <key>name</key> /     <string>Мелисса Ройч</string> /    </dict> /    <dict> /     <key>name</key> /     <string>Кэрол Энн Сьюзи</string> /    </dict> /    <dict> /     <key>name</key> /     <string>Майем Биэлик</string> /    </dict> /    <dict> /     <key>name</key> /     <string>Арти Манн</string> /    </dict> /    <dict> /     <key>name</key> /     <string>Кевин Суссман и другие.</string> /    </dict> /   </array> /   <key>directors</key> /   <array> /    <dict> /     <key>name</key> /     <string>Марк Сендроуски</string> /    </dict> /    <dict> /     <key>name</key> /     <string>Питер Чакос</string> /    </dict> /    <dict> /     <key>name</key> /     <string>Энтони Джозеф Рич</string> /    </dict> /   </array> /   <key>producers</key> /   <array> /    <dict> /     <key>name</key> /     <string>Чак Лорри</string> /    </dict> /    <dict> /     <key>name</key> /     <string>Ли Аронсон</string> /    </dict> /    <dict> /     <key>name</key> /     <string>Стив Холлэнд</string> /    </dict> /   </array> /   <key>screenwriters</key> /   <array> /    <dict> /     <key>name</key> /     <string>Чак Лорри</string> /    </dict> /    <dict> /     <key>name</key> /     <string>Ричард Розенсток</string> /    </dict> /    <dict> /     <key>name</key> /     <string>Стефен Энджел</string> /    </dict> /   </array> /  </dict> / </plist>

Видео
 Идентификатор                            : 1
 Формат                                   : AVC
 Формат/Информация                        : Advanced Video Codec
 Профиль формата                          : Baseline@L3.0
 Параметр CABAC формата                   : Нет
 Параметр ReFrames формата                : 2 кадра
 Идентификатор кодека                     : avc1
 Идентификатор кодека/Информация          : Advanced Video Coding
 Продолжительность                        : 22 м.
 Битрейт                                  : 1500 Кбит/сек
 Максимальный битрейт                     : 9741 Кбит/сек
 Ширина                                   : 640 пикселей
 Высота                                   : 480 пикселей
 Соотношение сторон                       : 16:9
 Соотношение сторон в оригинале           : 16:9
 Режим частоты кадров                     : Переменный
 Частота кадров                           : 23,976 кадра/сек
 Минимальная частота кадров               : 23,810 кадра/сек
 Максимальная частота кадров              : 24,390 кадра/сек
 Цветовое пространство                    : YUV
 Субдискретизация насыщенности            : 4:2:0
 Битовая глубина                          : 8 бит
 Тип развёртки                            : Прогрессивная
 Бит/(Пиксели*Кадры)                      : 0.204
 Размер потока                            : 246 Мбайт (74%)
 Библиотека кодирования                   : x264 core 120
 Настройки программы                      : cabac=0 / ref=2 / deblock=1:0:0 / analyse=0x1:0x111 / me=umh / subme=7 / psy=1 / psy_rd=1.00:0.00 / mixed_ref=1 / me_range=16 / chroma_me=1 / trellis=0 / 8x8dct=0 / cqm=0 / deadzone=21,11 / fast_pskip=1 / chroma_qp_offset=-2 / threads=6 / sliced_threads=0 / nr=0 / decimate=1 / interlaced=0 / bluray_compat=0 / constrained_intra=0 / bframes=0 / weightp=0 / keyint=240 / keyint_min=24 / scenecut=40 / intra_refresh=0 / rc_lookahead=40 / rc=2pass / mbtree=1 / bitrate=1500 / ratetol=1.0 / qcomp=0.60 / qpmin=3 / qpmax=69 / qpstep=4 / cplxblur=20.0 / qblur=0.5 / ip_ratio=1.40 / aq=1:1.00
 Язык                                     : English
 Дата кодирования                         : UTC 2013-01-19 07:47:52
 Дата пометки                             : UTC 2013-01-19 07:48:13
 Основные цвета                           : BT.709
 Характеристики трансфера                 : BT.709
 Коэффициенты матрицы                     : BT.709

Аудио #1
 Идентификатор                            : 2
 Формат                                   : AAC
 Формат/Информация                        : Advanced Audio Codec
 Профиль формата                          : LC
 Идентификатор кодека                     : 40
 Продолжительность                        : 22 м.
 Вид битрейта                             : Переменный
 Битрейт                                  : 128 Кбит/сек
 Максимальный битрейт                     : 204 Кбит/сек
 Каналы                                   : 2 канала
 Расположение каналов                     : Front: L R
 Частота                                  : 48,0 КГц
 Метод сжатия                             : С потерями
 Размер потока                            : 21,0 Мбайт (6%)
 Заголовок                                : RUS - Kuraj-Bambey (VO)
 Язык                                     : Russian
 Дата кодирования                         : UTC 2013-01-19 07:47:55
 Дата пометки                             : UTC 2013-01-19 07:48:13

Аудио #2
 Идентификатор                            : 3
 Формат                                   : AAC
 Формат/Информация                        : Advanced Audio Codec
 Профиль формата                          : LC
 Идентификатор кодека                     : 40
 Продолжительность                        : 22 м.
 Вид битрейта                             : Переменный
 Битрейт                                  : 128 Кбит/сек
 Максимальный битрейт                     : 189 Кбит/сек
 Каналы                                   : 2 канала
 Расположение каналов                     : Front: L R
 Частота                                  : 48,0 КГц
 Метод сжатия                             : С потерями
 Размер потока                            : 21,0 Мбайт (6%)
 Заголовок                                : RUS - NTV (DVO)
 Язык                                     : Russian
 Дата кодирования                         : UTC 2013-01-19 07:48:06
 Дата пометки                             : UTC 2013-01-19 07:48:13

Аудио #3
 Идентификатор                            : 4
 Формат                                   : AAC
 Формат/Информация                        : Advanced Audio Codec
 Профиль формата                          : LC
 Идентификатор кодека                     : 40
 Продолжительность                        : 22 м.
 Вид битрейта                             : Переменный
 Битрейт                                  : 128 Кбит/сек
 Максимальный битрейт                     : 251 Кбит/сек
 Каналы                                   : 2 канала
 Расположение каналов                     : Front: L R
 Частота                                  : 48,0 КГц
 Метод сжатия                             : С потерями
 Размер потока                            : 21,0 Мбайт (6%)
 Заголовок                                : RUS - CTC (MVO)
 Язык                                     : Russian
 Дата кодирования                         : UTC 2013-01-19 07:48:08
 Дата пометки                             : UTC 2013-01-19 07:48:13

Аудио #4
 Идентификатор                            : 5
 Формат                                   : AAC
 Формат/Информация                        : Advanced Audio Codec
 Профиль формата                          : LC
 Идентификатор кодека                     : 40
 Продолжительность                        : 22 м.
 Вид битрейта                             : Переменный
 Битрейт                                  : 128 Кбит/сек
 Максимальный битрейт                     : 158 Кбит/сек
 Каналы                                   : 2 канала
 Расположение каналов                     : Front: L R
 Частота                                  : 48,0 КГц
 Метод сжатия                             : С потерями
 Размер потока                            : 21,0 Мбайт (6%)
 Заголовок                                : ENG - Original
 Язык                                     : English
 Дата кодирования                         : UTC 2013-01-19 07:48:11
 Дата пометки                             : UTC 2013-01-19 07:48:13

Текст #1
 Идентификатор                            : 6
 Формат                                   : Timed text
 Режим смешивания                         : sbtl
 Идентификатор кодека                     : tx3g
 Продолжительность                        : 22 м.
 Вид битрейта                             : Переменный
 Битрейт                                  : 156 бит/сек
 Размер потока                            : 25,5 Кбайт (0%)
 Язык                                     : Russian
 Дата кодирования                         : UTC 2013-01-19 07:48:13
 Дата пометки                             : UTC 2013-01-19 07:48:13

Текст #2
 Идентификатор                            : 7
 Формат                                   : Timed text
 Режим смешивания                         : sbtl
 Идентификатор кодека                     : tx3g
 Продолжительность                        : 22 м.
 Вид битрейта                             : Переменный
 Битрейт                                  : 100 бит/сек
 Размер потока                            : 16,4 Кбайт (0%)
 Язык                                     : English
 Дата кодирования                         : UTC 2013-01-19 07:48:13
 Дата пометки                             : UTC 2013-01-19 07:48:13
Код:

Общее
 Полное имя                               : E:\Раздачи\Видео\The Big Bang Theory\The Big Bang Theory (480p)\Season 3\S03E01_new.m4v
 Формат                                   : MPEG-4
 Идентификатор кодека                     : M4V
 Размер файла                             : 293 Мбайт
 Продолжительность                        : 21 м.
 Режим общего битрейта                    : Переменный
 Общий поток                              : 1898 Кбит/сек
 Название фильма                          : The Electric Can Opener Fluctuation
 Альбом                                   : The Big Bang Theory
 Альбом/Исполнитель                       : The Big Bang Theory
 Часть/Положение                          : 3
 Часть/Всего                              : 1
 Трек/Положение                           : 1
 Трек/Всего                               : 23
 Исполнитель                              : Теория большого взрыва (The Big Bang Theory)
 Жанр                                     : Comedy
 Дата записи                              : UTC 2009-09-21 07:00:00
 Дата кодирования                         : UTC 2013-01-08 18:51:48
 Дата пометки                             : UTC 2013-01-08 18:52:16
 Правообладатель                          : ©2012 CBS Interactive. All rights reserved.
 Обложка                                  : Yes
 Примечание                               : Stroller
 tvsh                                     : Теория большого взрыва (The Big Bang Theory)
 tvnn                                     : CBS
 tven                                     : 301
 tvsn                                     : 3
 tves                                     : 1
 sonm                                     : The Electric Can Opener Fluctuation
 soar                                     : Big Bang Theory
 soal                                     : The Big Bang Theory, Season 3
 sosn                                     : Теория большого взрыва (The Big Bang Theory)
 desc                                     : Шелдон не может поверить, что его коллеги фальсифицировали данные его исследования в арктической экспедиции, и в обиде уезжает домой, в Техас.
 ldes                                     : Шелдон не может поверить, что его коллеги фальсифицировали данные его исследования в арктической экспедиции, и в обиде уезжает домой, в Техас. Друзья отправляются следом, чтобы вернуть его, что, в свою очередь, отсрочивает встречу Леонарда и Пенни после долгой разлуки…
 hdvd                                     : 0
 stik                                     : 10
 akID                                     : -1
 sfID                                     : 0
 cnID                                     : 336636644
 atID                                     : 264032462
 plID                                     : 561103928
 geID                                     : 4000
 xid                                      : WarnerBrosEnt:vendor_id:883316649244
 iTunMOVI                                 : <?xml version="1.0" encoding="UTF-8"?> / <!DOCTYPE plist PUBLIC "-//Apple//DTD PLIST 1.0//EN" "http://www.apple.com/DTDs/PropertyList-1.0.dtd"> / <plist version="1.0"> /  <dict> /   <key>cast</key> /   <array> /    <dict> /     <key>name</key> /     <string>Джонни Галэки</string> /    </dict> /    <dict> /     <key>name</key> /     <string>Джим Парсонс</string> /    </dict> /    <dict> /     <key>name</key> /     <string>Кейли Куоко</string> /    </dict> /    <dict> /     <key>name</key> /     <string>Саймон Хелберг</string> /    </dict> /    <dict> /     <key>name</key> /     <string>Кунал Нэйэр</string> /    </dict> /    <dict> /     <key>name</key> /     <string>Мелисса Ройч</string> /    </dict> /    <dict> /     <key>name</key> /     <string>Кэрол Энн Сьюзи</string> /    </dict> /    <dict> /     <key>name</key> /     <string>Майем Биэлик</string> /    </dict> /    <dict> /     <key>name</key> /     <string>Арти Манн</string> /    </dict> /    <dict> /     <key>name</key> /     <string>Кевин Суссман и другие.</string> /    </dict> /   </array> /   <key>directors</key> /   <array> /    <dict> /     <key>name</key> /     <string>Марк Сендроуски</string> /    </dict> /    <dict> /     <key>name</key> /     <string>Питер Чакос</string> /    </dict> /    <dict> /     <key>name</key> /     <string>Энтони Джозеф Рич</string> /    </dict> /   </array> /   <key>producers</key> /   <array> /    <dict> /     <key>name</key> /     <string>Чак Лорри</string> /    </dict> /    <dict> /     <key>name</key> /     <string>Ли Аронсон</string> /    </dict> /    <dict> /     <key>name</key> /     <string>Стив Холлэнд</string> /    </dict> /   </array> /   <key>screenwriters</key> /   <array> /    <dict> /     <key>name</key> /     <string>Чак Лорри</string> /    </dict> /    <dict> /     <key>name</key> /     <string>Ричард Розенсток</string> /    </dict> /    <dict> /     <key>name</key> /     <string>Стефен Энджел</string> /    </dict> /   </array> /  </dict> / </plist>

Видео
 Идентификатор                            : 1
 Формат                                   : AVC
 Формат/Информация                        : Advanced Video Codec
 Профиль формата                          : Baseline@L3.0
 Параметр CABAC формата                   : Нет
 Параметр ReFrames формата                : 2 кадра
 Идентификатор кодека                     : avc1
 Идентификатор кодека/Информация          : Advanced Video Coding
 Продолжительность                        : 21 м.
 Битрейт                                  : 1500 Кбит/сек
 Максимальный битрейт                     : 12,1 Мбит/сек
 Ширина                                   : 640 пикселей
 Высота                                   : 480 пикселей
 Соотношение сторон                       : 16:9
 Режим частоты кадров                     : Переменный
 Частота кадров                           : 23,976 кадра/сек
 Минимальная частота кадров               : 19,547 кадров/сек
 Максимальная частота кадров              : 23,992 кадра/сек
 Цветовое пространство                    : YUV
 Субдискретизация насыщенности            : 4:2:0
 Битовая глубина                          : 8 бит
 Тип развёртки                            : Прогрессивная
 Бит/(Пиксели*Кадры)                      : 0.204
 Размер потока                            : 231 Мбайт (79%)
 Библиотека кодирования                   : x264 core 120
 Настройки программы                      : cabac=0 / ref=2 / deblock=1:0:0 / analyse=0x1:0x111 / me=umh / subme=7 / psy=1 / psy_rd=1.00:0.00 / mixed_ref=1 / me_range=16 / chroma_me=1 / trellis=0 / 8x8dct=0 / cqm=0 / deadzone=21,11 / fast_pskip=1 / chroma_qp_offset=-2 / threads=6 / sliced_threads=0 / nr=0 / decimate=1 / interlaced=0 / bluray_compat=0 / constrained_intra=0 / bframes=0 / weightp=0 / keyint=240 / keyint_min=24 / scenecut=40 / intra_refresh=0 / rc_lookahead=40 / rc=2pass / mbtree=1 / bitrate=1500 / ratetol=1.0 / qcomp=0.60 / qpmin=3 / qpmax=69 / qpstep=4 / cplxblur=20.0 / qblur=0.5 / ip_ratio=1.40 / aq=1:1.00
 Язык                                     : English
 Дата кодирования                         : UTC 2013-01-08 18:51:48
 Дата пометки                             : UTC 2013-01-08 18:52:01
 Основные цвета                           : BT.709
 Характеристики трансфера                 : BT.709
 Коэффициенты матрицы                     : BT.709

Аудио #1
 Идентификатор                            : 2
 Формат                                   : AAC
 Формат/Информация                        : Advanced Audio Codec
 Профиль формата                          : LC
 Идентификатор кодека                     : 40
 Продолжительность                        : 21 м.
 Вид битрейта                             : Переменный
 Битрейт                                  : 128 Кбит/сек
 Максимальный битрейт                     : 142 Кбит/сек
 Каналы                                   : 2 канала
 Расположение каналов                     : Front: L R
 Частота                                  : 48,0 КГц
 Метод сжатия                             : С потерями
 Размер потока                            : 19,7 Мбайт (7%)
 Заголовок                                : RUS - Kuraj-Bambey (VO)
 Язык                                     : Russian
 Дата кодирования                         : UTC 2013-01-08 18:51:51
 Дата пометки                             : UTC 2013-01-08 18:52:01

Аудио #2
 Идентификатор                            : 3
 Формат                                   : AAC
 Формат/Информация                        : Advanced Audio Codec
 Профиль формата                          : LC
 Идентификатор кодека                     : 40
 Продолжительность                        : 21 м.
 Вид битрейта                             : Переменный
 Битрейт                                  : 128 Кбит/сек
 Максимальный битрейт                     : 147 Кбит/сек
 Каналы                                   : 2 канала
 Расположение каналов                     : Front: L R
 Частота                                  : 48,0 КГц
 Метод сжатия                             : С потерями
 Размер потока                            : 19,7 Мбайт (7%)
 Заголовок                                : RUS - CTC (MVO)
 Язык                                     : Russian
 Дата кодирования                         : UTC 2013-01-08 18:51:57
 Дата пометки                             : UTC 2013-01-08 18:52:01

Аудио #3
 Идентификатор                            : 4
 Формат                                   : AAC
 Формат/Информация                        : Advanced Audio Codec
 Профиль формата                          : LC
 Идентификатор кодека                     : 40
 Продолжительность                        : 21 м.
 Вид битрейта                             : Переменный
 Битрейт                                  : 128 Кбит/сек
 Максимальный битрейт                     : 156 Кбит/сек
 Каналы                                   : 2 канала
 Расположение каналов                     : Front: L R
 Частота                                  : 48,0 КГц
 Метод сжатия                             : С потерями
 Размер потока                            : 19,7 Мбайт (7%)
 Заголовок                                : ENG - Original
 Язык                                     : English
 Дата кодирования                         : UTC 2013-01-08 18:51:59
 Дата пометки                             : UTC 2013-01-08 18:52:01

Текст #1
 Идентификатор                            : 5
 Формат                                   : Timed text
 Режим смешивания                         : sbtl
 Идентификатор кодека                     : tx3g
 Продолжительность                        : 21 м.
 Вид битрейта                             : Переменный
 Битрейт                                  : 162 бит/сек
 Размер потока                            : 25,6 Кбайт (0%)
 Язык                                     : Russian
 Дата кодирования                         : UTC 2013-01-08 18:52:01
 Дата пометки                             : UTC 2013-01-08 18:52:01

Текст #2
 Идентификатор                            : 6
 Формат                                   : Timed text
 Режим смешивания                         : sbtl
 Идентификатор кодека                     : tx3g
 Продолжительность                        : 21 м.
 Вид битрейта                             : Переменный
 Битрейт                                  : 95 бит/сек
 Размер потока                            : 15,0 Кбайт (0%)
 Язык                                     : English
 Дата кодирования                         : UTC 2013-01-08 18:52:01
 Дата пометки                             : UTC 2013-01-08 18:52:01

Текст #3
 Идентификатор                            : 7
 Формат                                   : Apple text
 Идентификатор кодека                     : text
 Продолжительность                        : 21 м.
 Вид битрейта                             : Постоянный
 Битрейт                                  : 1 бит/сек
 Размер потока                            : 115 байт (0%)
 Дата кодирования                         : UTC 2013-01-08 18:52:16
 Дата пометки                             : UTC 2013-01-08 18:52:16
Код:
x264 [info]: frame I:541   Avg QP:20.86  size: 45633  PSNR Mean Y:42.23 U:49.59 V:52.28 Avg:43.52 Global:42.43
 x264 [info]: frame P:32426 Avg QP:22.76  size:  7185  PSNR Mean Y:40.86 U:48.39 V:48.66 Avg:42.19 Global:41.58
 x264 [info]: mb I  I16..4: 17.7%  0.0% 82.3%
 x264 [info]: mb P  I16..4:  0.5%  0.0%  1.1%  P16..4: 45.0% 20.0%  8.1%  0.0%  0.0%    skip:25.3%
 x264 [info]: coded y,uvDC,uvAC intra: 78.2% 68.4% 41.3% inter: 25.7% 12.3% 1.2%
 x264 [info]: i16 v,h,dc,p: 51% 14% 10% 25%
 x264 [info]: i4 v,h,dc,ddl,ddr,vr,hd,vl,hu: 30% 15% 15%  6%  7%  8%  6%  8%  6%
 x264 [info]: i8c dc,h,v,p: 52% 16% 27%  5%
 x264 [info]: ref P L0: 75.0% 25.0%
 x264 [info]: SSIM Mean Y:0.9688678 (15.068db)
 x264 [info]: PSNR Mean Y:40.881 U:48.407 V:48.719 Avg:42.216 Global:41.594 kb/s:1499.13
Сезон 1

  1. Pilot
  2. The Big Bran Hypothesis
  3. The Fuzzy Boots Corollary
  4. The Luminous Fish Effect
  5. The Hamburger Postulate
  6. The Middle-Earth Paradigm
  7. The Dumpling Paradox
  8. The Grasshopper Experiment
  9. The Cooper-Hofstadter Polarization
  10. The Loobenfeld Decay
  11. The Pancake Batter Anomaly
  12. The Jerusalem Duality
  13. The Bat Jar Conjecture
  14. The Nerdvana Annihilation
  15. The Porkchop Indeterminacy
  16. The Peanut Reaction
  17. The Tangerine Factor


Сезон 2

  1. The Bad Fish Paradigm
  2. The Codpiece Topology
  3. The Barbarian Sublimation
  4. The Griffin Equivalency
  5. The Euclid Alternative
  6. The Cooper-Nowitzki Theorem
  7. The Panty Pinata Polarization
  8. The Lizard-Spock Expansion
  9. The White Asparagus Triangulation
  10. The Vartabedian Conundrum
  11. The Bath Item Gift Hypothesis
  12. The Killer Robot Instability
  13. The Friendship Algorithm
  14. The Financial Permeability
  15. The Maternal Capacitance
  16. The Cushion Saturation
  17. The Terminator Decoupling
  18. The Work Song Nanocluster
  19. The Dead Hooker Juxtaposition
  20. The Hofstadter Isotope
  21. The Vegas Renormalization
  22. The Classified Materials Turbulence
  23. The Monopolar Expedition


Сезон 3

  1. The Electric Can Opener Fluctuation
  2. The Jiminy Conjecture
  3. The Gothowitz Deviation
  4. The Pirate Solution
  5. The Creepy Candy Coating Corollary
  6. The Cornhusker Vortex
  7. The Guitarist Amplification
  8. The Adhesive Duck Deficienc
  9. The Vengeance Formulation
  10. The Gorilla Experiment
  11. The Maternal Congruence
  12. The Psychic Vortex
  13. The Bozeman Reaction
  14. The Einstein Approximation
  15. The Large Hadron Collision
  16. The Excelsior Acquisition
  17. The Precious Fragmentation
  18. The Pants Alternative
  19. The Wheaton Recurrence
  20. The Spaghetti Catalyst
  21. The Plimpton Stimulation
  22. The Staircase Implementation
  23. The Lunar Excitation


Сезон 4

  1. Манипулятор Воловица (The Robotic Manipulation)
  2. Эффект крестоцветных (The Cruciferous Vegetable Amplification)
  3. Пуфыстая замена (The Zazzy Substitution)
  4. Тролль-искуситель (The Hot Troll Deviation)
  5. Эманация отчаяния (The Desperation Emanation)
  6. Инсинуация с ирландским пабом (The Irish Pub Formulation)
  7. Апологичная недостаточность (The Apology Insufficency)
  8. 21-секундный восторг (The 21-Second Excitation)
  9. Мужские осложнения (The Boyfriend Complexity)
  10. Гипотезы о паразитах Чужого (The Alien Parasite Hypothesis)
  11. Рекомбинация Лиги Справедливости (The Justice League Recombination)
  12. Применение автобусных брюк (The Bus Pants Utilization)
  13. Крах Машины Любви (The Love Car Displacement)
  14. Драматический катализ (The Thespian Catalyst)
  15. Цена меценатства (The Benefactor Factor)
  16. Правила сожительства (The Cohabitation Formulation)
  17. Происхождение тоста (The Toast Derivation)
  18. Аппроксимация престидижитации (The Prestidigitation Approximation)
  19. Нападение Зарнеки (The Zarnecki Incursion)
  20. Разрастание садов (The Herb Garden Germination)
  21. Препарирование соглашения (The Agreement Dissection)
  22. Внедрение гну (The Wildebeest Implementation)
  23. Реакция на помолвку (The Engagement Reaction)
  24. Соседская метаморфоза (The Roomate Transmorgrification)


Сезон 5

  1. Рефлекс лёгкого поведения (The Skank Reflex Analysis)
  2. Гипотеза о заражении (The Infestation Hypothesis)
  3. Экстраполяция растянутого паха (The Pulled Groin Extrapolation)
  4. Криворукий катализатор (The Wiggly Finger Catalyst)
  5. Реакция на русскую ракету (The Russian Rocket Reaction)
  6. Откровение ринита (The Rhinitis Revelation)
  7. Колебания хорошего парня (The Good Guy Fluctuation)
  8. Перестановка уединения (The Isolation Permutation)
  9. Рассеяние орнитофобии (The Ornithophobia Diffusion)
  10. Приобретение Огненной Плевательницы (The Flaming Spittoon Acquisition)
  11. Pекуррентность Спакермена (The Speckerman Recurrence)
  12. Уловка с блестящей безделушкой (The Shiny Trinket Maneuver)
  13. Гипотеза о рекомбинации (The Recombination Hypothesis)
  14. Запуск бета-теста (The Beta Test Initiation)
  15. Заключение дружбы (The Friendship Contraction)
  16. Проблема отпуска (The Vacation Solution)
  17. Дезинтеграция Ротмана (The Rothman Disintegration)
  18. Трансформация оборотня (The Werewolf Transformation)
  19. Круговерть на выходных (The Weekend Vortex)
  20. Поломка телепорта (The Transporter Malfunction)
  21. Воздействие Хокинга (The Hawking Excitation)
  22. Сходимость мальчишника (The Stag Convergence)
  23. Ускорение запуска (The Launch Acceleration)
  24. Предстартовая рефлексия (The Countdown Reflection)


Сезон 6

  1. Нестабильные свидания (The Date Night Variable)
  2. Колебания, разрывающие связи (The Decoupling Fluctuation)
  3. Наблюдение бозона Хиггса (The Higgs Boson Observation)
  4. Минимизация возвращения (The Re-Entry Minimization)
  5. Голографическое возбуждение (The Holographic Excitation)
  6. Нивелирование Извлечения (The Extract Obilteration)
  7. Конфигурация проживания (The Habitation Configuration)
  8. Особенность № 43 (The 43 Peculiarity)
  9. Эскалация парковочного места (The Parking Spot Escalation)
  10. Замещение рыбьих потрохов (The Fish Guts Displacement)
  11. Рождественская симуляция (The Santa Simulation)
  12. Эквивалентность яичному салату (The Egg Salad Equivalency)
  13. Бейкерсфилдская Экспедиция (The Bakersfield Expedition)
  14. Инверсия Купера/Крипке (The Cooper/Kripke Inversion)
  15. Спойлерная сегментация (The Spoil Alert Segmentation)
  16. Осязаемое доказательство привязанности (The Tangible Affection Proof)
  17. Изоляция монстра (The Monster Isolation)
  18. Осуществление договорных обязательств (The Contractual Obligation Implementation)
  19. Шкаф реконфигурации (The Closet Reconfiguration)
  20. Пребывание в турбулентности (The Tenure Turbulence)
  21. Альтернатива завершения (The Closure Alternative)
  22. Возрождение Протона (The Proton Resurgence)
  23. Потенциал любовного заклятья (The Love Spell Potential)
  24. Реакция Бон Вояж (The Bon Voyage Reaction)
Скриншоты:





Время раздачи: 11:00-23:00
[NNM-Club.me]_The Big Bang Theory (480p).torrent
 Торрент: Платиновая раздача  Зарегистрирован
 
Скачать


Примагнититься
 Зарегистрирован:   29 Сен 2013 14:02:27
 Размер:   36,7 GB  (
 Рейтинг:   4,9 (Голосов: 104)
 Поблагодарили:   380
 Проверка:   Оформление проверено модератором 29 Сен 2013 21:39:57
Как cкачать  ·  Как раздать  ·  Правильно оформить  ·  Поднять ратио!  
34255366
 
Стаж: 8 лет 11 мес.
Сообщений: 13
Ratio: 10,248
Раздал: 4,672 TB
100%
Откуда: Кардифф
uk.gif
спасибо огромное за релиз, планируете ли вы в таком же качестве Breaking Bad?
jhonny2
Стаж: 11 лет 11 мес.
Сообщений: 79
Ratio: 118,771
Поблагодарили: 1951
100%
russia.gif
7 сезон в этой раздаче или пока отдельно будет?
Лучше пока отдельно.
Stroller21 ®
Стаж: 6 лет 7 мес.
Сообщений: 6
Поблагодарили: 446
0%
34255366, я пока пробую в свободное время привыкнуть к правилам и особенностям этого трекера. В планах было, но будет ли реализовано не знаю

jhonny2, пока никак наверное. А потом может и отдельно
DumkoO-NT
Стаж: 8 лет 11 мес.
Сообщений: 12
Ratio: 45,72
100%
russia.gif
Как выбирать другую звуковую дорожку?
Z999
Стаж: 9 лет 4 мес.
Сообщений: 2
Ratio: 6,671
12%
если тут и правда все сезоны с ру и англ субтитрами, то это просто дар богов. Качаю, заранее спасибо!
Stroller21 ®
Стаж: 6 лет 7 мес.
Сообщений: 6
Поблагодарили: 446
0%
DumkoO-NT, а сморите на чем?

Z999, да все
DumkoO-NT
Стаж: 8 лет 11 мес.
Сообщений: 12
Ratio: 45,72
100%
russia.gif
Stroller21, для просмотра использую Media Player Classic. Обновил версию до последней, появилась возможность выбирать другие звуковые дорожки.
Casperitos
Стаж: 9 лет 11 мес.
Сообщений: 43
Ratio: 36,895
Поблагодарили: 37
100%
russia.gif
Сериал огонь!
CTuKC_39
Стаж: 10 лет 6 мес.
Сообщений: 249
Ratio: 1,152
Поблагодарили: 84
100%
russia.gif
где бы найти все сезоны только с дорожкой бомбея, без оригинальной английской. серии коротенькие, раздражает постоянно дорогу выбирать....
i_Reactive
Стаж: 9 лет 8 мес.
Сообщений: 17
Ratio: 115,593
100%
Откуда: Пермь
australia.gif
5 сезон не воспроизводится почти полностью, 6 тоже почти все серии запороты.

_________________
Все люди братья, но не все по разуму.
pl_a_st
Стаж: 10 лет 11 мес.
Сообщений: 19
Ratio: 2,987
0.42%
russia.gif
1 сезон под кураж бомбей не кураж бомбей.
Показать сообщения:   
Начать новую тему   Ответить на тему    Торрент-трекер NNM-Club -> Аудио и Видео -> Зарубежное видео для устройств Apple Часовой пояс: GMT + 3
Страница 1 из 1