Классический форум-трекер
canvas not supported
Нас вместе: 4 079 148

PBS. Поиск жизни за пределами Земли / Finding Life Beyond Earth (2011) HDTVRip [H.264/720p] [1-2 серия из 2]


Страницы:   Пред.  1, 2 
 
RSS
Начать новую тему   Ответить на тему    Торрент-трекер NNM-Club -> Зарубежные TV-бренды -> PBS
Автор Сообщение
Отец Лоренцо ®
Uploader 1000+, Сталкер
Стаж: 7 лет 9 мес.
Сообщений: 4039
Ratio: 7393,141
Раздал: 1,0172 PB
Поблагодарили: 121835
100%
Откуда: Харьков, Украина
PBS. Поиск жизни за пределами Земли / Finding Life Beyond Earth (2011) HDTVRip [H.264/720p] [1-2 серия из 2]
Режиссер / Телекомпания: Оливер Твинч / PBS NOVA
Страна: Великобритания
Жанр: Документальный, научно-познавательный, исследование


Описание:
Предпримите захватывающее путешествие в отдаленные сферы нашей Солнечной системы, чтобы обнаружить, где могут быть спрятаны секретные формы жизни. Комбинируя последние изображения телескопов с великолепной мультипликацией, эта программа погружает зрителей в достопримечательности и звуки других миров, в то время как ведущие астробиологи объясняют, как эти изменяются места, что они думают о потенциале жизни в нашей Солнечной системе.

Продолжительность: 00:52:39 + 00:54:05

Перевод: Двухголосый закадровый (профессиональный)
Язык субтитров: английский

Видеокодек: MPEG-4 AVC/H.264
Битрейт видео: ~4 260 Кбит/с
Размер кадра: 1280 x 720
Качество видео: HDTVRip [720p-LQ]
Аудио:
1. [русский] AC3, 2.0 ch, 192 Кбит/с
2. [english] DTS, 2.0 ch, 1510 Кбит/с
Описание: Человек давно задается вопросом - является ли Земля планетой, единственной в своем роде или во Вселенной есть другие планеты, подобные ей? Существует ли внеземная жизнь?
Поиски этой жизни - одна из величайших задач человечества, и ученые изоюретают все новые и новые средства для получения новой информации для ответа на этот вопрос.
Скриншоты:

Описание: В поисках планет, подобных нашей, у ученых порой возникают неожиданные вопросы и неожиданные ответы. Последние открытия наводят на мысль что условия жизни, пригодные для людей, могут быть гораздо более распространенными во Вселенной, чем это казалось людям ранее. Порой реальность превосходит даже фантазии писателей-фантастов, описывавших планеты, на которых были возможны проявления внеземной жизни.
Скриншоты:

Скриншоты:



General
Unique ID : 225616614353773014447088924690031435156 (0xA9BC2DEA1CBE2DA1A6C08B84D271DD94)
Complete name : D:\TORRENTS\!!! РЕЛИЗЫ\PBS.Finding.Life.Beyond.Earth.(2011).BDRip.720p\Ep.02.Moons.and.Beyond.2011.BDRip.720p.mkv
Format : Matroska
Format version : Version 2
File size : 2.30 GiB
Duration : 54mn 5s
Overall bit rate : 6 079 Kbps
Movie name : Finding Life Beyond Earth: EP2 - Moons and Beyond (2011)
Encoded date : UTC 2012-11-25 14:30:42
Writing application : mkvmerge v4.0.0 ('The Stars were mine') сборка от Jun 6 2010 16:18:42
Writing library : libebml v1.0.0 + libmatroska v1.0.0

Video
ID : 1
Format : AVC
Format/Info : Advanced Video Codec
Format profile : High@L4.1
Format settings, CABAC : Yes
Format settings, ReFrames : 7 frames
Codec ID : V_MPEG4/ISO/AVC
Duration : 54mn 5s
Bit rate : 4 257 Kbps
Width : 1 280 pixels
Height : 720 pixels
Display aspect ratio : 16:9
Frame rate mode : Constant
Frame rate : 29.970 fps
Color space : YUV
Chroma subsampling : 4:2:0
Bit depth : 8 bits
Scan type : Progressive
Bits/(Pixel*Frame) : 0.154
Stream size : 1.61 GiB (70%)
Title : Finding Life Beyond Earth: EP2 - Moons and Beyond (2011)
Writing library : x264 core 120 r2164 da19765
Encoding settings : cabac=1 / ref=7 / deblock=1:-3:-3 / analyse=0x3:0x113 / me=umh / subme=10 / psy=1 / psy_rd=1.00:0.00 / mixed_ref=1 / me_range=24 / chroma_me=1 / trellis=2 / 8x8dct=1 / cqm=0 / deadzone=21,11 / fast_pskip=0 / chroma_qp_offset=-2 / threads=6 / sliced_threads=0 / nr=0 / decimate=0 / interlaced=0 / bluray_compat=0 / constrained_intra=0 / bframes=7 / b_pyramid=2 / b_adapt=2 / b_bias=0 / direct=3 / weightb=1 / open_gop=0 / weightp=2 / keyint=300 / keyint_min=29 / scenecut=40 / intra_refresh=0 / rc_lookahead=50 / rc=crf / mbtree=1 / crf=18.5 / qcomp=0.80 / qpmin=10 / qpmax=51 / qpstep=4 / vbv_maxrate=50000 / vbv_bufsize=62500 / crf_max=0.0 / nal_hrd=none / ip_ratio=1.40 / aq=1:0.80
Language : English
Default : No
Forced : No

Audio #1
ID : 2
Format : AC-3
Format/Info : Audio Coding 3
Format profile : Dolby Digital
Mode extension : CM (complete main)
Format settings, Endianness : Big
Codec ID : A_AC3
Duration : 54mn 5s
Bit rate mode : Constant
Bit rate : 192 Kbps
Channel(s) : 2 channels
Channel positions : Front: L R
Sampling rate : 48.0 KHz
Bit depth : 16 bits
Compression mode : Lossy
Stream size : 74.3 MiB (3%)
Title : Russian Dolby 2.0
Language : Russian
Default : Yes
Forced : No

Audio #2
ID : 3
Format : DTS
Format/Info : Digital Theater Systems
Mode : 16
Format settings, Endianness : Big
Codec ID : A_DTS
Duration : 54mn 5s
Bit rate mode : Constant
Bit rate : 1 509 Kbps
Channel(s) : 2 channels
Channel positions : Front: L R
Sampling rate : 48.0 KHz
Bit depth : 24 bits
Compression mode : Lossy
Stream size : 584 MiB (25%)
Title : English DTS 2.0
Language : English
Default : No
Forced : No

Text
ID : 4
Format : UTF-8
Codec ID : S_TEXT/UTF8
Codec ID/Info : UTF-8 Plain Text
Title : English Subtitles
Language : English
Default : No
Forced : No
Пожалуйста, не уходите с раздачи - помогите докачать другим. Если понравился релиз - жмите кнопку "Спасибо"! :приветствую:

Время раздачи: 24 / 7

"PBS. Поиск жизни за пределами Земли / Finding Life Beyond Earth" на NoNaMe Club
[NNM-Club.me]_PBS.Finding.Life.Beyond.Earth.(2011).BDRip.720p.torrent
 Торрент: Платиновая раздача  Зарегистрирован
 
Скачать


Примагнититься
 Зарегистрирован:   07 Янв 2014 11:18:47
 Размер:   4,64 GB  (
 Рейтинг:   4,8 (Голосов: 64)
 Поблагодарили:   237
 Проверка:   Оформление проверено модератором 07 Янв 2014 11:19:51
Как cкачать  ·  Как раздать  ·  Правильно оформить  ·  Поднять ратио!  
Vitally
Стаж: 8 лет 4 мес.
Сообщений: 17
Ratio: 21,73
100%
russia.gif
Вселенная бесконечна, она просто не может быть конечной - поэтому жизнь тоже есть везде - как в космосе так и в микрокосмосе, типа атом это как звездная система и там тоже кто-то живет...
Показать сообщения:   
Начать новую тему   Ответить на тему    Торрент-трекер NNM-Club -> Зарубежные TV-бренды -> PBS Часовой пояс: GMT + 3
Страницы:   Пред.  1, 2
Страница 2 из 2