Классический форум-трекер
canvas not supported
Нас вместе: 4 094 252

Борис Севастьянов | Секреты мастерства музыканта-аранжировщика (2013) [PCRec]


 
 
RSS
Начать новую тему   Ответить на тему    Торрент-трекер NNM-Club -> Обучающие видеоматериалы -> Музыка
Автор Сообщение
Peaveykin ®
Стаж: 10 лет 1 мес.
Сообщений: 107
Ratio: 134,304
Поблагодарили: 10298
100%
ukraine.gif
Борис Севастьянов | Секреты мастерства музыканта-аранжировщика (2013) [PCRec]
Автор (режиссер): Борис Севастьянов
Жанр: Аранжировка музыки
Язык: Русский
Продолжительность: 02:56:32
Качество видео: PCRec
Видеокодек: AVC/H.264
Битрейт видео: ~266 Kbps, 14.985 fps
Размер кадра: 1280x720, 16:9,
Аудиокодек: AAC
Битрейт аудио: 320 Kbps, 2 channels, 44.1 KHz

Описание: В этом видеокурсе Борис Севастьянов делится своим опытом и показывает как мыслит профессиональный аранжировщик, на какие моменты он обращает внимание, что учитывает, как выстраивает аранжировку. Всё рассказанное в видеокурсе может быть применено в самых разных музыкальных стилях - от классической музыки до электронных треков. Т.е. Борис не учит делать аранжировку в конкретном стиле, но показывает общие для многих стилей моменты.
01. Полезные мысли - 07.32
02. Предварительные действия - 02.53
03. Выбор тембров - 08.02
04. Ритм-секция - 11.12
05. Фон - 01.57
06. Заполнение - 02.47
07. Контрапункт - 04.54
08. Дублировки - 05.34
09. Форма песни - 05.35
10. Фактурные приёмы - 13.19
11. Разнообразие фактуры - 04.49
12. Сбивки и лупы - 04.14
13. Разбор готовой аранжировки в стиле "поп", написанной специально для курса в программе Cubase (~ 1 час 30 минут)
General
Complete name : D:\Видеокурс по аранжировке\AutoPlay\Videos\01.mp4
Format : MPEG-4
Format profile : Base Media / Version 2
Codec ID : mp42
File size : 31.8 MiB
Duration : 7mn 32s
Overall bit rate : 589 Kbps
Encoded date : UTC 2012-09-19 19:28:51
Tagged date : UTC 2012-09-19 19:28:51

Video
ID : 2
Format : AVC
Format/Info : Advanced Video Codec
Format profile : Baseline@L3.1
Format settings, CABAC : No
Format settings, ReFrames : 5 frames
Codec ID : avc1
Codec ID/Info : Advanced Video Coding
Duration : 7mn 32s
Bit rate mode : Variable
Bit rate : 266 Kbps
Width : 1 280 pixels
Height : 720 pixels
Display aspect ratio : 16:9
Frame rate mode : Constant
Frame rate : 14.985 fps
Standard : NTSC
Color space : YUV
Chroma subsampling : 4:2:0
Bit depth : 8 bits
Scan type : Progressive
Bits/(Pixel*Frame) : 0.019
Stream size : 14.3 MiB (45%)
Language : English
Encoded date : UTC 2012-09-19 19:28:51
Tagged date : UTC 2012-09-19 19:28:51

Audio
ID : 1
Format : AAC
Format/Info : Advanced Audio Codec
Format profile : LC
Codec ID : 40
Duration : 7mn 32s
Bit rate mode : Constant
Bit rate : 320 Kbps
Channel(s) : 2 channels
Channel positions : Front: L R
Sampling rate : 44.1 KHz
Compression mode : Lossy
Stream size : 17.3 MiB (55%)
Language : English
Encoded date : UTC 2012-09-19 19:28:51
Tagged date : UTC 2012-09-19 19:28:51
Скриншоты:


Время раздачи: C 10:00 до 24:00
[NNM-Club.me]_Boris Sevast'yanov - Sekretyi masterstva muzyikanta-aranzhirovshchika.torrent
 Торрент: Платиновая раздача  Зарегистрирован
 
Скачать


Примагнититься
 Зарегистрирован:   18 Янв 2014 22:50:05
 Размер:   1,89 GB  (
 Рейтинг:   4,7 (Голосов: 43)
 Поблагодарили:   205
 Проверка:   Оформление проверено модератором 19 Янв 2014 12:28:53
Как cкачать  ·  Как раздать  ·  Правильно оформить  ·  Поднять ратио!  
bad1703
Стаж: 8 лет 2 мес.
Сообщений: 26
Ratio: 6,508
100%
раздайте, плиз
Показать сообщения:   
Начать новую тему   Ответить на тему    Торрент-трекер NNM-Club -> Обучающие видеоматериалы -> Музыка Часовой пояс: GMT + 3
Страница 1 из 1