Классический форум-трекер
canvas not supported
Нас вместе: 4 071 176
loading...

И.С. Бах - Органная музыка (2002) [FLAC|Lossless]<Классическая музыка>


 
 
RSS
Начать новую тему   Ответить на тему    Торрент-трекер NNM-Club -> Классика -> Классика (сборники) (Lossless)
Автор Сообщение
gigelmesh ®
Стаж: 6 лет 7 мес.
Сообщений: 572
Ratio: 93,708
Поблагодарили: 26721
100%
И.С. Бах - Органная музыка (2002)
Год: 2002
Жанр: Классическая музыка
Продолжительность: 01:10:40

Кодек: FLAC
Битрейт: Lossless

Трек лист:
1. Пассакалия и фуга до минор (Л. Рогг) (13:42)
2. Токката и фуга ре минор (Л. Рогг) (8:58)
3. Прелюдия и фуга до мажор ("9/8") (М. Меррей) (11:40)
4. Токката и фуга до мажор (дорийская) (М. Меррей) (15:17)
5. Трио-соната №4 ми минор, Adagio-vivace (О. Уинтер) (2:49)
6. Трио-соната №4 ми минор, Andante (О. Уинтер) (4:52)
7. Трио-соната №4 ми минор, Un Poco Allegro (О. Уинтер) (2:49)
8. Хоральная прелюдия "O Mensch, Bewein' Dein' Suende Gross" (М. Меррей) (5:12)
9. Хоральная прелюдия "An Wassefluesen Babylon" (Ф. Гохман) (5:20)
Код:

Exact Audio Copy V0.99 prebeta 4 from 23. January 2008

EAC extraction logfile from 29. June 2008, 15:27

Various / Iohann Sebastian Bach - Organnaia Muzyka

Used drive  : SONY    DVD RW DRU-190S   Adapter: 3  ID: 0

Read mode               : Secure
Utilize accurate stream : Yes
Defeat audio cache      : Yes
Make use of C2 pointers : No

Read offset correction                      : 6
Overread into Lead-In and Lead-Out          : No
Fill up missing offset samples with silence : Yes
Delete leading and trailing silent blocks   : No
Null samples used in CRC calculations       : Yes
Used interface                              : Native Win32 interface for Win NT & 2000

Used output format              : User Defined Encoder
Selected bitrate                : 512 kBit/s
Quality                         : High
Add ID3 tag                     : No
Command line compressor         : C:\Program Files\Exact Audio Copy\Flac\flac.exe
Additional command line options : -8 -V -T "ARTIST=%a" -T "TITLE=%t" -T "ALBUM=%g" -T "DATE=%y" -T "TRACKNUMBER=%n" -T "GENRE=%m" -T "COMMENT=EAC FLAC -8" %s

TOC of the extracted CD

     Track |   Start  |  Length  | Start sector | End sector
    ---------------------------------------------------------
        1  |  0:00.00 | 13:41.69 |         0    |    61643
        2  | 13:41.69 |  8:57.67 |     61644    |   101985
        3  | 22:39.61 | 11:40.26 |    101986    |   154511
        4  | 34:20.12 | 15:16.40 |    154512    |   223251
        5  | 49:36.52 |  2:49.33 |    223252    |   235959
        6  | 52:26.10 |  4:52.30 |    235960    |   257889
        7  | 57:18.40 |  2:49.20 |    257890    |   270584
        8  | 60:07.60 |  5:12.00 |    270585    |   293984
        9  | 65:19.60 |  5:20.30 |    293985    |   318014

Range status and errors

Selected range

     Filename F:\Audio\Ripped\Stereo & Video - Iohann Sebastian Bach - Organnaia Muzyka.wav

     Peak level 58.4 %
     Range quality 100.0 %
     Test CRC 20F09069
     Copy CRC 20F09069
     Copy OK

No errors occurred

AccurateRip summary

Track  1  not present in database
Track  2  not present in database
Track  3  not present in database
Track  4  not present in database
Track  5  not present in database
Track  6  not present in database
Track  7  not present in database
Track  8  not present in database
Track  9  not present in database

None of the tracks are present in the AccurateRip database

End of status report
Код:

PERFORMER: auCDtect Task Manager, ver. 1.6.0 RC1 build 1.6.0.1
Copyright (c) 2008-2010 y-soft. All rights reserved
http://y-soft.org

ANALYZER: auCDtect: CD records authenticity detector, version 0.8.2
Copyright (c) 2004 Oleg Berngardt. All rights reserved.
Copyright (c) 2004 Alexander Djourik. All rights reserved.

FILE: Stereo & Video - Iohann Sebastian Bach - Organnaia Muzyka.flac
  Size: 313092164 Hash: F719D0CEE7D08C646957570394CB8134 Accuracy: -m0
  Conclusion: CDDA 54%
  Signature: 978B35E0F16201486C4BEF301F26919292385716
Время раздачи: С 08:00 до 24:00
[NNM-Club.ru]_I.S.Bah-Organnaya muzyika.torrent
 Торрент: Платиновая раздача  Зарегистрирован
 
Скачать


Примагнититься
 Зарегистрирован:   21 Май 2013 12:39:06
 Размер:   303 MB  (
 Рейтинг:   4,8 (Голосов: 75)
 Поблагодарили:   326
 Проверка:   Оформление проверено модератором 23 Май 2013 00:28:39
Как cкачать  ·  Как раздать  ·  Правильно оформить  ·  Поднять ратио!  
Ottar2003
Стаж: 3 года 1 мес.
Сообщений: 26
Ratio: 10,896
100%
Замечательно!!!
sinoptik500
Стаж: 2 года 9 мес.
Сообщений: 81
Ratio: 58,92
Поблагодарили: 33
100%
Откуда: с рыбалки
В записи слышны прерывания. Но в целом слушать можно.
Показать сообщения:   
Начать новую тему   Ответить на тему    Торрент-трекер NNM-Club -> Классика -> Классика (сборники) (Lossless) Часовой пояс: GMT + 3
Страница 1 из 1