Классический форум-трекер
canvas not supported
Нас вместе: 4 079 312

Александр Ф. Скляр - Русское солнце: Песни Александра Вертинского (2012) [FLAC|lossless] <Романсы \ Шансон>


 
 
RSS
Начать новую тему   Ответить на тему    Торрент-трекер NNM-Club -> Шансон, Авторская и Военная песня -> Авторская и Военная песня (Lossless)
Автор Сообщение
fanDYNAMO ®
Модератор Музыки
RG Music
 
Стаж: 7 лет 5 мес.
Сообщений: 3562
Ratio: 528,945
Раздал: 36,73 TB
Поблагодарили: 84825
100%
Откуда: Черновцы
ukraine.gif
Александр Ф. Скляр - Русское солнце (2012)
Страна: Россия
Год Выпуска: 2012
Издатель (лейбл): СОЮЗ
Номер по каталогу: SZCD 6073-12
Жанр: Романсы \ Шансон
Продолжительность: 01:01:14

Кодек: FLAC
Битрейт: Lossless
Тип рипа: tracks+.cue

Треклист:
01. Танго «Магнолия» (02:53)
02. Джимми-пират (02:53)
03. Ракель Меллер (03:23)
04. Наши встречи (04:05)
05. Испано-Сюиза (02:34)
06. Мадам, уже падают листья (03:19)
07. Дни бегут (04:32)
08. Осень (Последний концерт) (03:53)
09. Прощальный ужин (01:14)
10. Дым без огня (05:02)
11. Сумасшедший шарманщик (02:44)
12. Концерт Сарасатэ (04:11)
13. Песенка о моей жене (03:45)
14. Желтый ангел (04:29)
15. Доченьки (04:58)
16. Я всегда был за тех... (05:27)
17. Палестинское танго (01:21)
Код:
Exact Audio Copy V1.0 beta 3 from 29. August 2011

Отчёт EAC об извлечении, выполненном 18. ноября 2012, 17:20

Александр Ф. Скляр / Русское солнце

Дисковод: ASUS    DRW-24B5ST   Adapter: 2  ID: 0

Режим чтения                 : Достоверность
Использование точного потока : Да
Отключение кэша аудио        : Да
Использование указателей C2  : Нет

Коррекция смещения при чтении                     : 6
Способность читать области Lead-in и Lead-out     : Нет
Заполнение пропущенных сэмплов тишиной            : Да
Удаление блоков с тишиной в начале и конце        : Нет
При вычислениях CRC использовались нулевые сэмплы : Да
Интерфейс                                         : Встроенный Win32-интерфейс для Win NT/2000
Обработка зазоров                                 : Добавлено к предыдущему треку

Выходной формат          : Пользовательский кодировщик
Выбранный битрейт        : 128 kBit/s
Качество                 : Высокий
Добавление ID3-тега      : Нет
Утилита сжатия           : C:\Program Files\Exact Audio Copy\Flac\flac.exe
Дополнительные параметры : -V -8 -T "Genre=%genre%" -T "Artist=%artist%" -T "Title=%title%" -T "Album=%albumtitle%" -T "Date=%year%" -T "Tracknumber=%tracknr%" -T "Comment=%comment%" %source%

TOC извлечённого CD

     Трек |   Старт  | Длительность | Начальный сектор | Конечный сектор
    ---------------------------------------------------------------------
       1  |  0:00.00 |    2:53.59   |           0      |      13033
       2  |  2:53.59 |    3:23.51   |       13034      |      28309
       3  |  6:17.35 |    4:05.21   |       28310      |      46705
       4  | 10:22.56 |    2:34.10   |       46706      |      58265
       5  | 12:56.66 |    3:19.04   |       58266      |      73194
       6  | 16:15.70 |    4:32.67   |       73195      |      93661
       7  | 20:48.62 |    3:53.30   |       93662      |     111166
       8  | 24:42.17 |    1:14.44   |      111167      |     116760
       9  | 25:56.61 |    5:02.31   |      116761      |     139441
      10  | 30:59.17 |    2:44.50   |      139442      |     151791
      11  | 33:43.67 |    4:11.34   |      151792      |     170650
      12  | 37:55.26 |    3:45.09   |      170651      |     187534
      13  | 41:40.35 |    4:29.62   |      187535      |     207771
      14  | 46:10.22 |    4:58.35   |      207772      |     230156
      15  | 51:08.57 |    5:27.39   |      230157      |     254720
      16  | 56:36.21 |    1:21.55   |      254721      |     260850
      17  | 57:58.01 |    3:16.03   |      260851      |     275553

Трек  1

     Имя файла F:\Download\MUSIC\RUSSIAN\А.Ф. Скляр\2012 - Русское солнце\Александр Ф. Скляр - 2012 - Русское солнце - 01 - Танго «Магнолия».wav

     Длина предзазора  0:00:02.00

     Пиковый уровень 95.4 %
     Скорость извлечения 4.3 X
     Качество трека 100.0 %
     CRC копии F864BF5D
     Копирование... OK

Трек  2

     Имя файла F:\Download\MUSIC\RUSSIAN\А.Ф. Скляр\2012 - Русское солнце\Александр Ф. Скляр - 2012 - Русское солнце - 02 - Джимми-пират.wav

     Длина предзазора  0:00:02.00

     Пиковый уровень 95.4 %
     Скорость извлечения 4.7 X
     Качество трека 100.0 %
     CRC копии C6A51BA6
     Копирование... OK

Трек  3

     Имя файла F:\Download\MUSIC\RUSSIAN\А.Ф. Скляр\2012 - Русское солнце\Александр Ф. Скляр - 2012 - Русское солнце - 03 - Ракель Меллер.wav

     Длина предзазора  0:00:02.00

     Пиковый уровень 95.4 %
     Скорость извлечения 5.3 X
     Качество трека 100.0 %
     CRC копии E8A9B8C8
     Копирование... OK

Трек  4

     Имя файла F:\Download\MUSIC\RUSSIAN\А.Ф. Скляр\2012 - Русское солнце\Александр Ф. Скляр - 2012 - Русское солнце - 04 - Наши встречи.wav

     Длина предзазора  0:00:02.00

     Пиковый уровень 82.8 %
     Скорость извлечения 5.1 X
     Качество трека 100.0 %
     CRC копии BD328A5F
     Копирование... OK

Трек  5

     Имя файла F:\Download\MUSIC\RUSSIAN\А.Ф. Скляр\2012 - Русское солнце\Александр Ф. Скляр - 2012 - Русское солнце - 05 - Испано-Сюиза.wav

     Длина предзазора  0:00:02.00

     Пиковый уровень 95.4 %
     Скорость извлечения 5.7 X
     Качество трека 100.0 %
     CRC копии 3396A627
     Копирование... OK

Трек  6

     Имя файла F:\Download\MUSIC\RUSSIAN\А.Ф. Скляр\2012 - Русское солнце\Александр Ф. Скляр - 2012 - Русское солнце - 06 - Мадам, уже падают листья.wav

     Длина предзазора  0:00:02.00

     Пиковый уровень 95.4 %
     Скорость извлечения 5.5 X
     Качество трека 99.9 %
     CRC копии 4049D17E
     Копирование... OK

Трек  7

     Имя файла F:\Download\MUSIC\RUSSIAN\А.Ф. Скляр\2012 - Русское солнце\Александр Ф. Скляр - 2012 - Русское солнце - 07 - Дни бегут.wav

     Длина предзазора  0:00:02.00

     Пиковый уровень 95.4 %
     Скорость извлечения 5.2 X
     Качество трека 99.9 %
     CRC копии 805A41E0
     Копирование... OK

Трек  8

     Имя файла F:\Download\MUSIC\RUSSIAN\А.Ф. Скляр\2012 - Русское солнце\Александр Ф. Скляр - 2012 - Русское солнце - 08 - Осень (Последний концерт).wav

     Длина предзазора  0:00:02.00

     Пиковый уровень 65.1 %
     Скорость извлечения 4.6 X
     Качество трека 100.0 %
     CRC копии 4DCCE05C
     Копирование... OK

Трек  9

     Имя файла F:\Download\MUSIC\RUSSIAN\А.Ф. Скляр\2012 - Русское солнце\Александр Ф. Скляр - 2012 - Русское солнце - 09 - Прощальный ужин.wav

     Длина предзазора  0:00:02.00

     Пиковый уровень 95.4 %
     Скорость извлечения 6.5 X
     Качество трека 99.9 %
     CRC копии 5916B940
     Копирование... OK

Трек 10

     Имя файла F:\Download\MUSIC\RUSSIAN\А.Ф. Скляр\2012 - Русское солнце\Александр Ф. Скляр - 2012 - Русское солнце - 10 - Дым без огня.wav

     Длина предзазора  0:00:02.00

     Пиковый уровень 95.4 %
     Скорость извлечения 4.8 X
     Качество трека 99.9 %
     CRC копии 119495A7
     Копирование... OK

Трек 11

     Имя файла F:\Download\MUSIC\RUSSIAN\А.Ф. Скляр\2012 - Русское солнце\Александр Ф. Скляр - 2012 - Русское солнце - 11 - Сумасшедший шарманщик.wav

     Длина предзазора  0:00:02.00

     Пиковый уровень 95.4 %
     Скорость извлечения 7.5 X
     Качество трека 100.0 %
     CRC копии CA39F19C
     Копирование... OK

Трек 12

     Имя файла F:\Download\MUSIC\RUSSIAN\А.Ф. Скляр\2012 - Русское солнце\Александр Ф. Скляр - 2012 - Русское солнце - 12 - Концерт Сарасатэ.wav

     Длина предзазора  0:00:02.00

     Пиковый уровень 95.4 %
     Скорость извлечения 6.3 X
     Качество трека 99.9 %
     CRC копии 9F644C86
     Копирование... OK

Трек 13

     Имя файла F:\Download\MUSIC\RUSSIAN\А.Ф. Скляр\2012 - Русское солнце\Александр Ф. Скляр - 2012 - Русское солнце - 13 - Песенка о моей жене.wav

     Длина предзазора  0:00:02.00

     Пиковый уровень 95.4 %
     Скорость извлечения 7.9 X
     Качество трека 100.0 %
     CRC копии 7904C8D0
     Копирование... OK

Трек 14

     Имя файла F:\Download\MUSIC\RUSSIAN\А.Ф. Скляр\2012 - Русское солнце\Александр Ф. Скляр - 2012 - Русское солнце - 14 - Желтый ангел.wav

     Длина предзазора  0:00:02.00

     Пиковый уровень 95.4 %
     Скорость извлечения 7.3 X
     Качество трека 99.9 %
     CRC копии AE63CBFA
     Копирование... OK

Трек 15

     Имя файла F:\Download\MUSIC\RUSSIAN\А.Ф. Скляр\2012 - Русское солнце\Александр Ф. Скляр - 2012 - Русское солнце - 15 - Доченьки.wav

     Длина предзазора  0:00:02.00

     Пиковый уровень 95.4 %
     Скорость извлечения 8.1 X
     Качество трека 100.0 %
     CRC копии A870FAD5
     Копирование... OK

Трек 16

     Имя файла F:\Download\MUSIC\RUSSIAN\А.Ф. Скляр\2012 - Русское солнце\Александр Ф. Скляр - 2012 - Русское солнце - 16 - Я всегда был за тех....wav

     Длина предзазора  0:00:02.00

     Пиковый уровень 51.6 %
     Скорость извлечения 5.2 X
     Качество трека 100.0 %
     CRC копии B303211B
     Копирование... OK

Трек 17

     Имя файла F:\Download\MUSIC\RUSSIAN\А.Ф. Скляр\2012 - Русское солнце\Александр Ф. Скляр - 2012 - Русское солнце - 17 - Палестинское танго.wav

     Длина предзазора  0:00:02.00

     Пиковый уровень 95.4 %
     Скорость извлечения 8.9 X
     Качество трека 100.0 %
     CRC копии A4F221C4
     Копирование... OK

Ошибок не произошло

Конец отчёта

==== Контрольная сумма отчёта C4CCB13074CFF0789AE2A2F1C460F5896582A27018AA400648127F1D3F8877F5 ====
Код:
REM GENRE Rock
REM DATE 2012
REM DISCID FD0E5A11
REM COMMENT "ExactAudioCopy v1.0b3"
CATALOG 4650062360732
PERFORMER "Александр Ф. Скляр"
TITLE "Русское солнце"
FILE "Александр Ф. Скляр - 2012 - Русское солнце - 01 - Танго «Магнолия».wav" WAVE
  TRACK 01 AUDIO
    TITLE "Танго «Магнолия»"
    PERFORMER "Александр Ф. Скляр"
    INDEX 01 00:00:00
  TRACK 02 AUDIO
    TITLE "Джимми-пират"
    PERFORMER "Александр Ф. Скляр"
    INDEX 00 02:51:59
FILE "Александр Ф. Скляр - 2012 - Русское солнце - 02 - Джимми-пират.wav" WAVE
    INDEX 01 00:00:00
  TRACK 03 AUDIO
    TITLE "Ракель Меллер"
    PERFORMER "Александр Ф. Скляр"
    INDEX 00 03:21:51
FILE "Александр Ф. Скляр - 2012 - Русское солнце - 03 - Ракель Меллер.wav" WAVE
    INDEX 01 00:00:00
  TRACK 04 AUDIO
    TITLE "Наши встречи"
    PERFORMER "Александр Ф. Скляр"
    INDEX 00 04:03:21
FILE "Александр Ф. Скляр - 2012 - Русское солнце - 04 - Наши встречи.wav" WAVE
    INDEX 01 00:00:00
  TRACK 05 AUDIO
    TITLE "Испано-Сюиза"
    PERFORMER "Александр Ф. Скляр"
    INDEX 00 02:32:10
FILE "Александр Ф. Скляр - 2012 - Русское солнце - 05 - Испано-Сюиза.wav" WAVE
    INDEX 01 00:00:00
  TRACK 06 AUDIO
    TITLE "Мадам, уже падают листья"
    PERFORMER "Александр Ф. Скляр"
    INDEX 00 03:17:04
FILE "Александр Ф. Скляр - 2012 - Русское солнце - 06 - Мадам, уже падают листья.wav" WAVE
    INDEX 01 00:00:00
  TRACK 07 AUDIO
    TITLE "Дни бегут"
    PERFORMER "Александр Ф. Скляр"
    INDEX 00 04:30:67
FILE "Александр Ф. Скляр - 2012 - Русское солнце - 07 - Дни бегут.wav" WAVE
    INDEX 01 00:00:00
  TRACK 08 AUDIO
    TITLE "Осень (Последний концерт)"
    PERFORMER "Александр Ф. Скляр"
    INDEX 00 03:51:30
FILE "Александр Ф. Скляр - 2012 - Русское солнце - 08 - Осень (Последний концерт).wav" WAVE
    INDEX 01 00:00:00
  TRACK 09 AUDIO
    TITLE "Прощальный ужин"
    PERFORMER "Александр Ф. Скляр"
    INDEX 00 01:12:44
FILE "Александр Ф. Скляр - 2012 - Русское солнце - 09 - Прощальный ужин.wav" WAVE
    INDEX 01 00:00:00
  TRACK 10 AUDIO
    TITLE "Дым без огня"
    PERFORMER "Александр Ф. Скляр"
    INDEX 00 05:00:31
FILE "Александр Ф. Скляр - 2012 - Русское солнце - 10 - Дым без огня.wav" WAVE
    INDEX 01 00:00:00
  TRACK 11 AUDIO
    TITLE "Сумасшедший шарманщик"
    PERFORMER "Александр Ф. Скляр"
    INDEX 00 02:42:50
FILE "Александр Ф. Скляр - 2012 - Русское солнце - 11 - Сумасшедший шарманщик.wav" WAVE
    INDEX 01 00:00:00
  TRACK 12 AUDIO
    TITLE "Концерт Сарасатэ"
    PERFORMER "Александр Ф. Скляр"
    INDEX 00 04:09:34
FILE "Александр Ф. Скляр - 2012 - Русское солнце - 12 - Концерт Сарасатэ.wav" WAVE
    INDEX 01 00:00:00
  TRACK 13 AUDIO
    TITLE "Песенка о моей жене"
    PERFORMER "Александр Ф. Скляр"
    INDEX 00 03:43:09
FILE "Александр Ф. Скляр - 2012 - Русское солнце - 13 - Песенка о моей жене.wav" WAVE
    INDEX 01 00:00:00
  TRACK 14 AUDIO
    TITLE "Желтый ангел"
    PERFORMER "Александр Ф. Скляр"
    INDEX 00 04:27:62
FILE "Александр Ф. Скляр - 2012 - Русское солнце - 14 - Желтый ангел.wav" WAVE
    INDEX 01 00:00:00
  TRACK 15 AUDIO
    TITLE "Доченьки"
    PERFORMER "Александр Ф. Скляр"
    INDEX 00 04:56:35
FILE "Александр Ф. Скляр - 2012 - Русское солнце - 15 - Доченьки.wav" WAVE
    INDEX 01 00:00:00
  TRACK 16 AUDIO
    TITLE "Я всегда был за тех..."
    PERFORMER "Александр Ф. Скляр"
    INDEX 00 05:25:39
FILE "Александр Ф. Скляр - 2012 - Русское солнце - 16 - Я всегда был за тех....wav" WAVE
    INDEX 01 00:00:00
  TRACK 17 AUDIO
    TITLE "Палестинское танго"
    PERFORMER "Александр Ф. Скляр"
    INDEX 00 01:19:55
FILE "Александр Ф. Скляр - 2012 - Русское солнце - 17 - Палестинское танго.wav" WAVE
    INDEX 01 00:00:00
Код:
-----------------------

DON'T MODIFY THIS FILE

-----------------------

PERFORMER: auCDtect Task Manager, ver. 1.5.1RC6 build 1.5.1.7
Copyright (c) 2008-2010 y-soft. All rights reserved
http://y-soft.org

ANALYZER: auCDtect: CD records authenticity detector, version 0.8.2
Copyright (c) 2004 Oleg Berngardt. All rights reserved.
Copyright (c) 2004 Alexander Djourik. All rights reserved.

FILE: Александр Ф. Скляр - 2012 - Русское солнце - 17 - Палестинское танго.flac
  Size: 16140602 Hash: D660502C4C372B4983F79C2646F52080 Accuracy: -m0
  Conclusion: CDDA 100%
  Signature: 0D613505A89BB82473A61E7539AA4DA64733005D
FILE: Александр Ф. Скляр - 2012 - Русское солнце - 16 - Я всегда был за тех....flac
  Size: 5158190 Hash: 6FAF69C5C9404E3D770FCE681092BFA3 Accuracy: -m0
  Conclusion: CDDA 100%
  Signature: D6E241C5786648CC7DD20B468378FEF8D6BF89B7
FILE: Александр Ф. Скляр - 2012 - Русское солнце - 15 - Доченьки.flac
  Size: 25662130 Hash: 75DFB2FB4D8580210505044B4FA196A1 Accuracy: -m0
  Conclusion: CDDA 100%
  Signature: F934E170905D6E090A54AC36E66184FE170369AC
FILE: Александр Ф. Скляр - 2012 - Русское солнце - 14 - Желтый ангел.flac
  Size: 23103724 Hash: 47BD5D75758572CD03BDB64D2D52D28F Accuracy: -m0
  Conclusion: CDDA 100%
  Signature: 87A910069EB77AB32BA1D3FD55EAFC50B4FA54E2
FILE: Александр Ф. Скляр - 2012 - Русское солнце - 13 - Песенка о моей жене.flac
  Size: 20433518 Hash: 826918C9DCAD19F413C2F3721D37F361 Accuracy: -m0
  Conclusion: CDDA 100%
  Signature: BC15E1454B53DFC0369B8A65D9078C1A7D27F8C9
FILE: Александр Ф. Скляр - 2012 - Русское солнце - 12 - Концерт Сарасатэ.flac
  Size: 17276582 Hash: C2262F5EB9ED07057F0E51429F6F341E Accuracy: -m0
  Conclusion: CDDA 100%
  Signature: 4F6BFEDBC0422AD8EAB5CDCA912E68409E3D53AC
FILE: Александр Ф. Скляр - 2012 - Русское солнце - 11 - Сумасшедший шарманщик.flac
  Size: 19447007 Hash: 9B16FC66894971F2D02B1786A946E0EC Accuracy: -m0
  Conclusion: CDDA 100%
  Signature: C9643D15DDA70176F36AA0BAD9FAD6F9C24F9E5E
FILE: Александр Ф. Скляр - 2012 - Русское солнце - 10 - Дым без огня.flac
  Size: 12000866 Hash: 7B36B14EBFBD5FC03FB12F6266877DF0 Accuracy: -m0
  Conclusion: CDDA 100%
  Signature: D6313318B7C23D72D599720F170D4392965AA273
FILE: Александр Ф. Скляр - 2012 - Русское солнце - 09 - Прощальный ужин.flac
  Size: 22292311 Hash: D450E8F213ECB9D7A888F8CC987DA8C2 Accuracy: -m0
  Conclusion: CDDA 100%
  Signature: FDCE42480C2F885181438327F8DF0F41094A041B
FILE: Александр Ф. Скляр - 2012 - Русское солнце - 08 - Осень (Последний концерт).flac
  Size: 4812621 Hash: 2060F7C3793F04832ACD08E2A4ACEFB8 Accuracy: -m0
  Conclusion: CDDA 100%
  Signature: 224E27ED219729B71B20DC545F5D8766B3418FD9
FILE: Александр Ф. Скляр - 2012 - Русское солнце - 07 - Дни бегут.flac
  Size: 18760903 Hash: C409A282BA8090B311BB8A2D41C427C2 Accuracy: -m0
  Conclusion: CDDA 100%
  Signature: 9A2DB3A6CFDADF6803DA2DD26235DC9B1F5BCE80
FILE: Александр Ф. Скляр - 2012 - Русское солнце - 06 - Мадам, уже падают листья.flac
  Size: 20757784 Hash: 1828B9E1F5000AE10D3BC6C55117CF16 Accuracy: -m0
  Conclusion: CDDA 100%
  Signature: 4C77C7D856F1982AFCEF88AECFF36FE0E2560A66
FILE: Александр Ф. Скляр - 2012 - Русское солнце - 05 - Испано-Сюиза.flac
  Size: 16651535 Hash: BAEB17E10E29D01B7D91AAC0D562312F Accuracy: -m0
  Conclusion: CDDA 100%
  Signature: 7C94C9703B47BDCE0F46E769A7D89B6A89442CCD
FILE: Александр Ф. Скляр - 2012 - Русское солнце - 04 - Наши встречи.flac
  Size: 10951783 Hash: 07887F3ECF16F73BE286776FEB667766 Accuracy: -m0
  Conclusion: CDDA 100%
  Signature: 66AA17EC160FAA6F8BCDA386A2213F7F83184939
FILE: Александр Ф. Скляр - 2012 - Русское солнце - 03 - Ракель Меллер.flac
  Size: 20744924 Hash: 32D7682CDC570825D88DAC2501FB7C82 Accuracy: -m0
  Conclusion: CDDA 100%
  Signature: 22D34BDACA7B46B7D8BA05E528E95332C1951EA4
FILE: Александр Ф. Скляр - 2012 - Русское солнце - 02 - Джимми-пират.flac
  Size: 15178003 Hash: 47AA2304DE85F7F920270EF2222D4D09 Accuracy: -m0
  Conclusion: CDDA 100%
  Signature: E4A43095518133CE7C80FE19D5CDD0E705759D8F
FILE: Александр Ф. Скляр - 2012 - Русское солнце - 01 - Танго «Магнолия».flac
  Size: 14614562 Hash: CF9A6B61E7344C94E5CFB61E40EE47E1 Accuracy: -m0
  Conclusion: CDDA 100%
  Signature: F9A8D75E83CE8E38B8592F3FD40A36E82D3FED26

Александр Ф. Скляр - Русское солнце: Песни Александра Вертинского (2012) [MP3|320 kbps] <Романсы \ Шансон>
Время раздачи: с 09:00 до 23:00 (UTC\GTM+2)



Поглощение/вытеснение
Только с согласия релизера

J_Man
[NNM-Club.ru]_Aleksandr F. Sklyar - Russkoe solntse (2012).torrent
 Торрент: Платиновая раздача  Зарегистрирован
 
Скачать


 Зарегистрирован:   18 Ноя 2012 20:29:21
 Размер:   280 MB  (
 Рейтинг:   4,3 (Голосов: 19)
 Поблагодарили:   86
 Проверка:   Оформление проверено модератором 18 Ноя 2012 22:59:09
Как cкачать  ·  Как раздать  ·  Правильно оформить  ·  Поднять ратио!  

_________________
Исправил(а) релиз - напиши в ЛС
На своих одиночных раздачах минимум месяц! Пишите в ЛС, если будет возможность - вернусь на раздачу!
boroda1791
Стаж: 7 лет 1 мес.
Сообщений: 281
Ratio: 3,778
35.9%
При все:м уважении к исполнителю (А.Ф.С.) крайне недоволен прочтением глубоко трагичных произведений, как балаганным шансоньетством.
Kuznec74
Стаж: 8 лет 4 мес.
Сообщений: 1
Ratio: 9,908
66.67%
Прекрасное исполнение! Мне понравилось. Слушал и Вертинского, и Б.Г. Один прокартавил, другой-проблеял. Стихи сами по себе, как и музыка, просты и не напряжны. Салонный вариант... Александр Феликсович сумел из первоначальной "канвы" сделать вкусно и без перебора специями. Как и большинство из того, что делает.
Показать сообщения:   
Начать новую тему   Ответить на тему    Торрент-трекер NNM-Club -> Шансон, Авторская и Военная песня -> Авторская и Военная песня (Lossless) Часовой пояс: GMT + 3
Страница 1 из 1