Классический форум-трекер
canvas not supported
Нас вместе: 4 077 833

Порт-Артур / Высота 203 / 203 kochi / Port Arthur (1980) DVD9


Страницы:   Пред.  1, 2 
 
RSS
Начать новую тему   Ответить на тему    Торрент-трекер NNM-Club -> Зарубежное кино -> Азиатское кино (DVD)
Автор Сообщение
CrimeanFox ®
Стаж: 8 лет 9 мес.
Сообщений: 1022
Ratio: 254,845
Поблагодарили: 33236
100%
Откуда: Крым
ussr.gif
Порт-Артур / Высота 203 / 203 kochi / Port Arthur (1980) DVD9
Русское название: Порт-Артур / Высота 203
Оригинальное название: 203 kochi / Port Arthur
Год выпуска: 1980
Жанр: Военный, Исторический, Драма
Страна: Япония, Toei Company

Описание фильма:
Около Порт-Артура ночью на 27 января (9 февраля) 1904 года начались первые боевые столкновения Русско-японской войны, когда японские корабли выпустили торпеды по русским военным кораблям, стоявшим на внешнем рейде Порт-Артура. При этом были серьёзно повреждены броненосцы «Ретвизан» и «Цесаревич», а также крейсер «Паллада». Оставшиеся корабли предприняли две попытки вырваться из порта, но обе оказались неудачными. Нападение японцев было совершено без объявления войны и было осуждено большинством стран мирового сообщества. Только Великобритания, являвшаяся в то время союзником Японии, праздновала нападение как «великое деяние».

В этом фильме рассказывается об осаде японскими войсками русской крепости Порт-Артур во время русско-японской войны 1905 года. Оборона Порт-Артура — самое продолжительное сражение Русско-японской войны. Во время осады широко применялись такие новые виды оружия как 11-дюймовые мортиры, скорострельные гаубицы, пулемёты Максима, заграждения из колючей проволоки, ручные гранаты.
Порт-Артур стоил противнику колоссальных жертв . На подступах к крепости была перемолота стотысячная армия японцев; русский флот и гарнизон приковали к себе почти весь флот неприятеля. Порт-Артур пал на 329-й день после начала войны, в ходе которой он сыграл выдающуюся роль. Японская армия, действовавшая на Квантунском полуострове против русской крепости, потеряла за время осады свыше 110 тысяч человек, из них до 10 тысяч офицеров.
Оборона Порт-Артура привлекла внимание мировой общественности к этому малоизвестному уголку Азии. Восхищение вызывали как стойкость защитников крепости, так и отчаянная храбрость осаждавших её солдат, тысячами гибнувших в лобовых атаках. Эпопее Порт-Артура было посвящено множество работ военных теоретиков, мемуаров и произведений беллетристики.
20 декабря 1904 (2 января 1905) генерал Стессель заявил о своём намерении вступить в переговоры о сдаче, вопреки мнению Военного совета крепости. 23 декабря 1904 (5 января 1905) была заключена капитуляция, согласно которой гарнизон в составе 23 000 человек (считая с больными) сдавался военнопленными со всеми запасами боевого снаряжения. Офицеры могли вернуться на Родину, дав честное слово, что не будут участвовать в военных действиях. Уволенный в 1906 году со службы Стессель на следующий год предстал перед военным трибуналом, который приговорил его к смертной казни за сдачу порта. Суд установил, что в течение всего периода обороны Стессель не руководил действиями гарнизона по защите крепости, а, наоборот, сознательно готовил её к сдаче. Приговор потом заменили 10-летним заключением, но уже в мае 1909 года он был прощён царем.
Режиссер: Тосио Масуда / Toshio Masuda
Актеры: Тацуя Накадаи, Тэрухико Аои, Тэцуро Танба, Макото Сато, Тосиро Мифунэ, Хисая Морисигэ, Сигэру Кояма, Масако Нацумэ, Масаюки Юхара, Кэнтаро Канэко, Ёсио Инаба, Акио Хасэгава, Акихико Хирата, Ёко Ногива, Сэн Яно.

Продолжительность: 03:04:22
Перевод: Любительский (одноголосый закадровый) (DeMon)
Язык субтитров: русский (перевод assombre, редактура kofka)
Вид субтитров: Вшитые



Дата мировой премьеры: 2 августа 1980

Видеокодек: MPEG-2
Битрейт видео: ~5 323 Kbps
Размер кадра: PAL 16:9 720x576@1024x576
Качество видео: DVD9
Аудиокодек: AC3 2ch
Битрейт аудио: 224 Kbps
Аудио 1: (Dolby AC3, 2 ch) 224 Kbps, 48.0 KHz (русский)
Аудио 2: (Dolby AC3, 2 ch) 224 Kbps, 48.0 KHz (японский)

Сэмпл: Ссылка
Title: 203 kochi
Size: 7.65 Gb ( 8 023 614,00 KBytes ) - DVD-9
Enabled regions: 1, 2, 3, 4, 5, 6, 7, 8

VTS_01 :
Play Length: 00:00:05+00:00:05+00:00:10
Video: PAL 16:9 (720x576) VBR, Auto Letterboxed

VTS_02 :
Play Length: 03:04:22
Video: PAL 16:9 (720x576) VBR, Auto Letterboxed
Audio:
Russian (Dolby AC3, 2 ch)
Japanese (Dolby AC3, 2 ch)
Subtitles:
Russian

VTS_03 :
Play Length: 00:01:26
Video: PAL 16:9 (720x576) VBR, Auto Letterboxed
Audio:
Not specified (Dolby AC3, 2 ch)
Subtitles:
Not specified

* Menus Information *

VIDEO_TS Menu
Video:
PAL 16:9 (720x576) VBR
Auto Letterboxed
Audio:
Not specified (Dolby AC3, 2 ch)
English Language Unit :
Title Menu

VTS_01 Menu
Video:
NTSC 4:3 (720x480) VBR
Auto Pan&Scan, Auto Letterboxed
Language Unit :
Angle menu
Language Unit :

Language Unit :

VTS_02 Menu
Video:
PAL 16:9 (720x576) VBR
Auto Letterboxed
Audio:
Not specified (Dolby AC3, 2 ch)
English Language Unit :
Root Menu
Audio Menu
Chapter (PTT) Menu

VTS_03 Menu
Video:
PAL 16:9 (720x576) VBR
Auto Letterboxed
English Language Unit :
Root Menu
Format : MPEG-PS
File size : 1 024 MiB
Duration : 24mn 18s
Overall bit rate mode : Variable
Overall bit rate : 5 888 Kbps

Video
ID : 224 (0xE0)
Format : MPEG Video
Format version : Version 2
Format profile : Main@Main
Format settings, BVOP : Yes
Format settings, Matrix : Default
Format settings, GOP : M=3, N=13
Duration : 24mn 18s
Bit rate mode : Variable
Bit rate : 5 323 Kbps
Maximum bit rate : 8 800 Kbps
Width : 720 pixels
Height : 576 pixels
Display aspect ratio : 2.40:1
Frame rate : 25.000 fps
Standard : PAL
Color space : YUV
Chroma subsampling : 4:2:0
Bit depth : 8 bits
Scan type : Interlaced
Scan order : Top Field First
Compression mode : Lossy
Bits/(Pixel*Frame) : 0.513
Stream size : 926 MiB (90%)
Color primaries : BT.470-2 System B, BT.470-2 System G
Transfer characteristics : BT.470-2 System B, BT.470-2 System G
Matrix coefficients : BT.470-2 System B, BT.470-2 System G

Audio #1
ID : 189 (0xBD)-128 (0x80)
Format : AC-3
Format/Info : Audio Coding 3
Mode extension : CM (complete main)
Format settings, Endianness : Big
Muxing mode : DVD-Video
Duration : 24mn 18s
Bit rate mode : Constant
Bit rate : 224 Kbps
Channel(s) : 2 channels
Channel positions : Front: L R
Sampling rate : 48.0 KHz
Bit depth : 16 bits
Compression mode : Lossy
Delay relative to video : -368ms
Stream size : 39.0 MiB (4%)

Audio #2
ID : 189 (0xBD)-129 (0x81)
Format : AC-3
Format/Info : Audio Coding 3
Mode extension : CM (complete main)
Format settings, Endianness : Big
Muxing mode : DVD-Video
Duration : 24mn 18s
Bit rate mode : Constant
Bit rate : 224 Kbps
Channel(s) : 2 channels
Channel positions : Front: L R
Sampling rate : 48.0 KHz
Bit depth : 16 bits
Compression mode : Lossy
Delay relative to video : -368ms
Stream size : 39.0 MiB (4%)

Text
ID : 189 (0xBD)-32 (0x20)
Format : RLE
Format/Info : Run-length encoding
Muxing mode : DVD-Video
Duration : 24mn 10s
Delay relative to video : 3s 120ms
Скриншоты:




Время раздачи: до 5 скачавших
[NNM-Club.ru]_203 kochi.torrent
 Торрент: Платиновая раздача  Зарегистрирован
 
Скачать


 Зарегистрирован:   15 Июл 2012 13:27:01
 Размер:   7,65 GB  (
 Рейтинг:   4,4 (Голосов: 27)
 Поблагодарили:   106
 Проверка:   Оформление проверено модератором 15 Июл 2012 21:25:10
Как cкачать  ·  Как раздать  ·  Правильно оформить  ·  Поднять ратио!  

_________________
«Добрым словом и револьвером можно добиться большего, чем одним добрым словом» (Аль Капоне) Мои релизы
yuliyaMUR
 
Стаж: 6 лет 6 мес.
Сообщений: 157
Ratio: 214,987
100%
russia.gif
Как обидно, что книгу А. Степанова обошли наши кинопроизводители стороной! Ишь, дорогой фильм получается. Это там попробуй и в местности в этой снимать, и крейсера да броненосцы на воду поставить, конечно дорого будет. Но эта такая история. Уже 2й раз читаю книгу, так как будто фильм смотрю! Хоть японцы сняли фильм, им спасибо огромное!
... ха-х... у них-то победа, а у нас поражение...(((( и почему бы не снять.

_________________
Зовите, пожалуйста на раздачу!!
Показать сообщения:   
Начать новую тему   Ответить на тему    Торрент-трекер NNM-Club -> Зарубежное кино -> Азиатское кино (DVD) Часовой пояс: GMT + 3
Страницы:   Пред.  1, 2
Страница 2 из 2