Классический форум-трекер
canvas not supported
Нас вместе: 4 077 741

Юрий Визбор - Собрание сочинений в 10 томах (том 2-10) (1999) [FLAC|Lossless]<Авторская песня>


 
 
RSS
Начать новую тему   Ответить на тему    Торрент-трекер NNM-Club -> Шансон, Авторская и Военная песня -> Авторская и Военная песня (Lossless)
Автор Сообщение
Колыч ®
Модератор Музыки
Спонсор Uploader 1000+
Стаж: 11 лет 7 мес.
Сообщений: 7803
Ratio: 4015,839
Поблагодарили: 544290
100%
Юрий Визбор - Собрание сочинений в 10 томах (том 2-10) (1999)
Год: 1999
Жанр: Авторская песня
Продолжительность: 07:21:03
Издатель (лейбл): ФАМИЛИЯ ПАБЛИШИНГ
Номер по каталогу: FE-225107
Аудиокодек: FLAC (*.flac)
Тип рипа: image+.cue
Битрейт: Lossless
В содержимом раздачи: Сканы, буклет, тексты песен
Особенность раздачи: Отсутствует Том 1



Том 02 - А будет это так:
Трек лист
01. Белый пароходик
02. Деньги
03. В Аркашиной квартире
04. Католическая церковь
05. Солнце за гору заходит
06. Не жалейте меня
07. Авто
08. А будет это так
09. Когда придет мой пароход
10. Вот уходит наше время
11. Одинокий гитарист
12. Струна и кисть
13. Сорокалетье
14. Безбожники
15. Ночная дорога
16. Манеж
Код:

Exact Audio Copy V1.0 beta 3 from 29. August 2011
Отчёт EAC об извлечении, выполненном 2. сентября 2013, 19:53
Юрий Визбор / Том 02 - А будет это так
Дисковод: _NEC    DVD+-RW ND-6650A   Adapter: 2  ID: 0
Режим чтения                 : Достоверность
Использование точного потока : Да
Отключение кэша аудио        : Да
Использование указателей C2  : Нет
Коррекция смещения при чтении                     : 48
Способность читать области Lead-in и Lead-out     : Нет
Заполнение пропущенных сэмплов тишиной            : Да
Удаление блоков с тишиной в начале и конце        : Нет
При вычислениях CRC использовались нулевые сэмплы : Да
Интерфейс                                         : Встроенный Win32-интерфейс для Win NT/2000
Выходной формат          : Пользовательский кодировщик
Выбранный битрейт        : 128 kBit/s
Качество                 : Высокий
Добавление ID3-тега      : Нет
Утилита сжатия           : C:\Program Files\Exact Audio Copy\Flac\flac.exe
Дополнительные параметры : -V -8 -T "Date=%year%" -T "Genre=%genre%" %source%
TOC извлечённого CD
     Трек |   Старт  | Длительность | Начальный сектор | Конечный сектор
    ---------------------------------------------------------------------
       1  |  0:00.00 |    2:37.16   |           0      |      11790
       2  |  2:37.16 |    3:04.51   |       11791      |      25641
       3  |  5:41.67 |    2:37.30   |       25642      |      37446
       4  |  8:19.22 |    2:43.27   |       37447      |      49698
       5  | 11:02.49 |    1:44.25   |       49699      |      57523
       6  | 12:46.74 |    2:33.02   |       57524      |      69000
       7  | 15:20.01 |    2:59.50   |       69001      |      82475
       8  | 18:19.51 |    2:09.24   |       82476      |      92174
       9  | 20:29.00 |    2:26.72   |       92175      |     103196
      10  | 22:55.72 |    2:47.05   |      103197      |     115726
      11  | 25:43.02 |    2:39.46   |      115727      |     127697
      12  | 28:22.48 |    3:32.13   |      127698      |     143610
      13  | 31:54.61 |    3:52.50   |      143611      |     161060
      14  | 35:47.36 |    1:29.43   |      161061      |     167778
      15  | 37:17.04 |    3:32.64   |      167779      |     183742
      16  | 40:49.68 |    3:08.23   |      183743      |     197865
Характеристики диапазона извлечения и сообщения об ошибках
Выбранный диапазон
     Имя файла H:\ \Юрий Визбор - Собрание сочинений в 10 томах (1999)\Юрий Визбор - Собрание сочинений Том 02\Юрий Визбор - Том 02 - А будет это так.wav
     Пиковый уровень 71.1 %
     Скорость извлечения 3.4 X
     Качество диапазона 100.0 %
     CRC теста 1D771662
     CRC копии 1D771662
     Копирование... OK
Ошибок не произошло
AccurateRip: сводка
Трек  1  отсутствует в базе данных
Трек  2  отсутствует в базе данных
Трек  3  отсутствует в базе данных
Трек  4  отсутствует в базе данных
Трек  5  отсутствует в базе данных
Трек  6  отсутствует в базе данных
Трек  7  отсутствует в базе данных
Трек  8  отсутствует в базе данных
Трек  9  отсутствует в базе данных
Трек 10  отсутствует в базе данных
Трек 11  отсутствует в базе данных
Трек 12  отсутствует в базе данных
Трек 13  отсутствует в базе данных
Трек 14  отсутствует в базе данных
Трек 15  отсутствует в базе данных
Трек 16  отсутствует в базе данных
Ни одного трека нет в базе AccurateRip
Конец отчёта
==== Контрольная сумма отчёта ECAC606C6C24EBFCC078D8418CADBA30A32D0AE3A2125885EDFCE0BA7A53D7AA ====
Код:

-----------------------
DON'T MODIFY THIS FILE
-----------------------
PERFORMER: auCDtect Task Manager, ver. 1.6.0 RC1 build 1.6.0.1
Copyright (c) 2008-2010 y-soft. All rights reserved
http://y-soft.org
ANALYZER: auCDtect: CD records authenticity detector, version 0.8.2
Copyright (c) 2004 Oleg Berngardt. All rights reserved.
Copyright (c) 2004 Alexander Djourik. All rights reserved.
FILE: Юрий Визбор - Том 02 - А будет это так.flac
  Size: 217954280 Hash: C0031FF0F92ACE7955FA566CEB0D88FC Accuracy: -m0
  Conclusion: CDDA 100%
  Signature: 5FC9EA6CA5938C9E8FEE492EB3942A5E3A54D0DD
Трек лист:
01. Наполним музыкой сердца (посв. А. Межирову)
02. Три сосны
03. Деревня Новлянки
04. Апрельская прогулка
05. Синий перекресток
06. Многоголосье
07. Республика Тува
08. Если я заболею
09. Спутники
10. Курильские острова
11. Вересковый куст
12. Песня об осени
13. Какие слова у дождя
14. А зима будет большая
15. Я смотрю сквозь тебя
16. Зимняя песня
17. На востоке
18. Хала-Бала
19. В Ялте ноябрь
Код:
Exact Audio Copy V1.0 beta 3 from 29. August 2011
Отчёт EAC об извлечении, выполненном 2. сентября 2013, 20:33
Юрий Визбор / Том 03 - Апрельская прогулка
Дисковод: _NEC    DVD+-RW ND-6650A   Adapter: 2  ID: 0
Режим чтения                 : Достоверность
Использование точного потока : Да
Отключение кэша аудио        : Да
Использование указателей C2  : Нет
Коррекция смещения при чтении                     : 48
Способность читать области Lead-in и Lead-out     : Нет
Заполнение пропущенных сэмплов тишиной            : Да
Удаление блоков с тишиной в начале и конце        : Нет
При вычислениях CRC использовались нулевые сэмплы : Да
Интерфейс                                         : Встроенный Win32-интерфейс для Win NT/2000
Выходной формат          : Пользовательский кодировщик
Выбранный битрейт        : 128 kBit/s
Качество                 : Высокий
Добавление ID3-тега      : Нет
Утилита сжатия           : C:\Program Files\Exact Audio Copy\Flac\flac.exe
Дополнительные параметры : -V -8 -T "Date=%year%" -T "Genre=%genre%" %source%
TOC извлечённого CD
     Трек |   Старт  | Длительность | Начальный сектор | Конечный сектор
    ---------------------------------------------------------------------
       1  |  0:00.00 |    2:58.73   |           0      |      13422
       2  |  2:58.73 |    2:35.26   |       13423      |      25073
       3  |  5:34.24 |    2:31.19   |       25074      |      36417
       4  |  8:05.43 |    2:13.73   |       36418      |      46465
       5  | 10:19.41 |    2:12.52   |       46466      |      56417
       6  | 12:32.18 |    2:48.33   |       56418      |      69050
       7  | 15:20.51 |    1:08.08   |       69051      |      74158
       8  | 16:28.59 |    2:18.54   |       74159      |      84562
       9  | 18:47.38 |    2:23.13   |       84563      |      95300
      10  | 21:10.51 |    1:51.11   |       95301      |     103636
      11  | 23:01.62 |    3:18.44   |      103637      |     118530
      12  | 26:20.31 |    2:25.14   |      118531      |     129419
      13  | 28:45.45 |    2:11.08   |      129420      |     139252
      14  | 30:56.53 |    1:26.52   |      139253      |     145754
      15  | 32:23.30 |    1:46.51   |      145755      |     153755
      16  | 34:10.06 |    1:47.14   |      153756      |     161794
      17  | 35:57.20 |    3:03.62   |      161795      |     175581
      18  | 39:01.07 |    1:31.32   |      175582      |     182438
      19  | 40:32.39 |    2:16.66   |      182439      |     192704
Характеристики диапазона извлечения и сообщения об ошибках
Выбранный диапазон
     Имя файла H:\ \Юрий Визбор - Собрание сочинений в 10 томах (1999)\Юрий Визбор - Собрание сочинений Том 03\Юрий Визбор - Том 03 - Апрельская прогулка.wav
     Пиковый уровень 73.7 %
     Скорость извлечения 3.5 X
     Качество диапазона 100.0 %
     CRC теста 019FEC30
     CRC копии 019FEC30
     Копирование... OK
Ошибок не произошло
AccurateRip: сводка
Трек  1  отсутствует в базе данных
Трек  2  отсутствует в базе данных
Трек  3  отсутствует в базе данных
Трек  4  отсутствует в базе данных
Трек  5  отсутствует в базе данных
Трек  6  отсутствует в базе данных
Трек  7  отсутствует в базе данных
Трек  8  отсутствует в базе данных
Трек  9  отсутствует в базе данных
Трек 10  отсутствует в базе данных
Трек 11  отсутствует в базе данных
Трек 12  отсутствует в базе данных
Трек 13  отсутствует в базе данных
Трек 14  отсутствует в базе данных
Трек 15  отсутствует в базе данных
Трек 16  отсутствует в базе данных
Трек 17  отсутствует в базе данных
Трек 18  отсутствует в базе данных
Трек 19  отсутствует в базе данных
Ни одного трека нет в базе AccurateRip
Конец отчёта
Код:
-----------------------
DON'T MODIFY THIS FILE
-----------------------
PERFORMER: auCDtect Task Manager, ver. 1.6.0 RC1 build 1.6.0.1
Copyright (c) 2008-2010 y-soft. All rights reserved
http://y-soft.org
ANALYZER: auCDtect: CD records authenticity detector, version 0.8.2
Copyright (c) 2004 Oleg Berngardt. All rights reserved.
Copyright (c) 2004 Alexander Djourik. All rights reserved.
FILE: Юрий Визбор - Том 03 - Апрельская прогулка.flac
  Size: 207992456 Hash: 43248C83EEE9C801B916C517B17ED590 Accuracy: -m0
  Conclusion: CDDA 100%
  Signature: E2B72DF653D68B352FA0957AD989648A8B289447
Трек лист:
01. Ты у меня одна
02. Мне твердят
03. Ах, что за дни такие настают
04. Леди
05. Зайка
06. Осенние дожди
07. Посёлок Турист
08. Тост за Женьку
09. Что ж ты нигде не живешь
10. Сигарета к сигарете
11. Лирическая-диалектическая
12. Зимний вечер
13. Милая моя
14. Иркутск
15. Всё навстречу облака, облака
16. Ходики
17. О, посмотри, какие облака
18. Вечерняя песня
19. Синие снега
20. Рекламы погасли уже
21. Астрономы
22. Старые ели
23. Солнце дрожит в воде
24. Солнышко
Код:
Exact Audio Copy V1.0 beta 3 from 29. August 2011
Отчёт EAC об извлечении, выполненном 2. сентября 2013, 23:03
Юрий Визбор / Том 04 - Ты у меня одна
Дисковод: _NEC    DVD+-RW ND-6650A   Adapter: 2  ID: 0
Режим чтения                 : Достоверность
Использование точного потока : Да
Отключение кэша аудио        : Да
Использование указателей C2  : Нет
Коррекция смещения при чтении                     : 48
Способность читать области Lead-in и Lead-out     : Нет
Заполнение пропущенных сэмплов тишиной            : Да
Удаление блоков с тишиной в начале и конце        : Нет
При вычислениях CRC использовались нулевые сэмплы : Да
Интерфейс                                         : Встроенный Win32-интерфейс для Win NT/2000
Выходной формат          : Пользовательский кодировщик
Выбранный битрейт        : 128 kBit/s
Качество                 : Высокий
Добавление ID3-тега      : Нет
Утилита сжатия           : C:\Program Files\Exact Audio Copy\Flac\flac.exe
Дополнительные параметры : -V -8 -T "Date=%year%" -T "Genre=%genre%" %source%
TOC извлечённого CD
     Трек |   Старт  | Длительность | Начальный сектор | Конечный сектор
    ---------------------------------------------------------------------
       1  |  0:00.00 |    2:02.16   |           0      |       9165
       2  |  2:02.16 |    2:03.01   |        9166      |      18391
       3  |  4:05.17 |    2:41.50   |       18392      |      30516
       4  |  6:46.67 |    3:36.09   |       30517      |      46725
       5  | 10:23.01 |    2:07.01   |       46726      |      56251
       6  | 12:30.02 |    1:58.19   |       56252      |      65120
       7  | 14:28.21 |    2:31.12   |       65121      |      76457
       8  | 16:59.33 |    3:13.50   |       76458      |      90982
       9  | 20:13.08 |    1:49.63   |       90983      |      99220
      10  | 22:02.71 |    2:18.57   |       99221      |     109627
      11  | 24:21.53 |    1:51.18   |      109628      |     117970
      12  | 26:12.71 |    1:52.33   |      117971      |     126403
      13  | 28:05.29 |    2:03.64   |      126404      |     135692
      14  | 30:09.18 |    1:35.14   |      135693      |     142831
      15  | 31:44.32 |    1:22.37   |      142832      |     149018
      16  | 33:06.69 |    4:48.56   |      149019      |     170674
      17  | 37:55.50 |    2:23.09   |      170675      |     181408
      18  | 40:18.59 |    1:54.60   |      181409      |     190018
      19  | 42:13.44 |    2:16.53   |      190019      |     200271
      20  | 44:30.22 |    2:09.43   |      200272      |     209989
      21  | 46:39.65 |    1:56.71   |      209990      |     218760
      22  | 48:36.61 |    1:58.46   |      218761      |     227656
      23  | 50:35.32 |    1:58.39   |      227657      |     236545
      24  | 52:33.71 |    2:02.42   |      236546      |     245737
Характеристики диапазона извлечения и сообщения об ошибках
Выбранный диапазон
     Имя файла H:\ \Юрий Визбор - Собрание сочинений в 10 томах (1999)\Юрий Визбор - Собрание сочинений Том 4\Юрий Визбор - Том 04 - Ты у меня одна.wav
     Пиковый уровень 83.4 %
     Скорость извлечения 0.9 X
     Качество диапазона 99.9 %
     CRC теста 2ABADA70
     CRC копии 2ABADA70
     Копирование... OK
Ошибок не произошло
AccurateRip: сводка
Трек  1  отсутствует в базе данных
Трек  2  отсутствует в базе данных
Трек  3  отсутствует в базе данных
Трек  4  отсутствует в базе данных
Трек  5  отсутствует в базе данных
Трек  6  отсутствует в базе данных
Трек  7  отсутствует в базе данных
Трек  8  отсутствует в базе данных
Трек  9  отсутствует в базе данных
Трек 10  отсутствует в базе данных
Трек 11  отсутствует в базе данных
Трек 12  отсутствует в базе данных
Трек 13  отсутствует в базе данных
Трек 14  отсутствует в базе данных
Трек 15  отсутствует в базе данных
Трек 16  отсутствует в базе данных
Трек 17  отсутствует в базе данных
Трек 18  отсутствует в базе данных
Трек 19  отсутствует в базе данных
Трек 20  отсутствует в базе данных
Трек 21  отсутствует в базе данных
Трек 22  отсутствует в базе данных
Трек 23  отсутствует в базе данных
Трек 24  отсутствует в базе данных
Ни одного трека нет в базе AccurateRip
Конец отчёта
==== Контрольная сумма отчёта 336461D43B733966E939DFF00C24608837E9488CF363636626061D32F6307184 ====
Код:
-----------------------
DON'T MODIFY THIS FILE
-----------------------
PERFORMER: auCDtect Task Manager, ver. 1.6.0 RC1 build 1.6.0.1
Copyright (c) 2008-2010 y-soft. All rights reserved
http://y-soft.org
ANALYZER: auCDtect: CD records authenticity detector, version 0.8.2
Copyright (c) 2004 Oleg Berngardt. All rights reserved.
Copyright (c) 2004 Alexander Djourik. All rights reserved.
FILE: Юрий Визбор - Том 04 - Ты у меня одна.flac
  Size: 257403052 Hash: DF66123FC6123F3C3B809FFF9F5AF901 Accuracy: -m0
  Conclusion: CDDA 100%
  Signature: 08FBB086362F649501E93E8DC7854C72766072E2
Трек лист:
01. Так вот мое начало
02. Маркшейдер мне сказал
03. Я бы новую жизнь
04. Турбины ТУ
05. Песенка о земле Франца-Иосифа
06. Командировка
07. Великое искусство киносъёмки
08. Над киностудией свирепствует зима
09. Осколок луны
10. Ночной полет
11. Работа
12. Нам бы выпить перед стартом
13. Прикосновение к земле
14. Река Неглинка
15. Песня о поэтах
16. Саянская ГЭС
17. В кабинете Гагарина тихо
18. Улетаем
19. Мадагаскар
20. Знаком ли ты с землей?
21. Заканчивай, приятель, ночевать
22. Абакан-Тайшет
23. Зимний лагерь Алибек
24. Памяти ушедших
Код:
Exact Audio Copy V1.0 beta 3 from 29. August 2011
Отчёт EAC об извлечении, выполненном 3. сентября 2013, 0:29
Юрий Визбор / Том 05 - Так вот мое начало
Дисковод: _NEC    DVD+-RW ND-6650A   Adapter: 2  ID: 0
Режим чтения                 : Достоверность
Использование точного потока : Да
Отключение кэша аудио        : Да
Использование указателей C2  : Нет
Коррекция смещения при чтении                     : 48
Способность читать области Lead-in и Lead-out     : Нет
Заполнение пропущенных сэмплов тишиной            : Да
Удаление блоков с тишиной в начале и конце        : Нет
При вычислениях CRC использовались нулевые сэмплы : Да
Интерфейс                                         : Встроенный Win32-интерфейс для Win NT/2000
Выходной формат          : Пользовательский кодировщик
Выбранный битрейт        : 128 kBit/s
Качество                 : Высокий
Добавление ID3-тега      : Нет
Утилита сжатия           : C:\Program Files\Exact Audio Copy\Flac\flac.exe
Дополнительные параметры : -V -8 -T "Date=%year%" -T "Genre=%genre%" %source%
TOC извлечённого CD
     Трек |   Старт  | Длительность | Начальный сектор | Конечный сектор
    ---------------------------------------------------------------------
       1  |  0:00.00 |    1:52.65   |           0      |       8464
       2  |  1:52.65 |    2:24.51   |        8465      |      19315
       3  |  4:17.41 |    3:30.45   |       19316      |      35110
       4  |  7:48.11 |    1:56.30   |       35111      |      43840
       5  |  9:44.41 |    4:06.13   |       43841      |      62303
       6  | 13:50.54 |    1:10.60   |       62304      |      67613
       7  | 15:01.39 |    2:50.02   |       67614      |      80365
       8  | 17:51.41 |    2:25.07   |       80366      |      91247
       9  | 20:16.48 |    3:17.10   |       91248      |     106032
      10  | 23:33.58 |    1:47.49   |      106033      |     114106
      11  | 25:21.32 |    1:58.43   |      114107      |     122999
      12  | 27:20.00 |    1:29.14   |      123000      |     129688
      13  | 28:49.14 |    3:16.73   |      129689      |     144461
      14  | 32:06.12 |    2:34.32   |      144462      |     156043
      15  | 34:40.44 |    1:13.03   |      156044      |     161521
      16  | 35:53.47 |    2:01.31   |      161522      |     170627
      17  | 37:55.03 |    2:37.33   |      170628      |     182435
      18  | 40:32.36 |    2:21.13   |      182436      |     193023
      19  | 42:53.49 |    2:04.46   |      193024      |     202369
      20  | 44:58.20 |    1:21.39   |      202370      |     208483
      21  | 46:19.59 |    1:47.45   |      208484      |     216553
      22  | 48:07.29 |    1:29.73   |      216554      |     223301
      23  | 49:37.27 |    1:33.15   |      223302      |     230291
      24  | 51:10.42 |    4:22.25   |      230292      |     249966
Характеристики диапазона извлечения и сообщения об ошибках
Выбранный диапазон
     Имя файла H:\ \Юрий Визбор - Собрание сочинений в 10 томах (1999)\Юрий Визбор - Собрание сочинений Том 05\Юрий Визбор - Том 05 - Так вот мое начало.wav
     Пиковый уровень 99.8 %
     Скорость извлечения 3.7 X
     Качество диапазона 100.0 %
     CRC теста 5526FC3F
     CRC копии 5526FC3F
     Копирование... OK
Ошибок не произошло
AccurateRip: сводка
Трек  1  отсутствует в базе данных
Трек  2  отсутствует в базе данных
Трек  3  отсутствует в базе данных
Трек  4  отсутствует в базе данных
Трек  5  отсутствует в базе данных
Трек  6  отсутствует в базе данных
Трек  7  отсутствует в базе данных
Трек  8  отсутствует в базе данных
Трек  9  отсутствует в базе данных
Трек 10  отсутствует в базе данных
Трек 11  отсутствует в базе данных
Трек 12  отсутствует в базе данных
Трек 13  отсутствует в базе данных
Трек 14  отсутствует в базе данных
Трек 15  отсутствует в базе данных
Трек 16  отсутствует в базе данных
Трек 17  отсутствует в базе данных
Трек 18  отсутствует в базе данных
Трек 19  отсутствует в базе данных
Трек 20  отсутствует в базе данных
Трек 21  отсутствует в базе данных
Трек 22  отсутствует в базе данных
Трек 23  отсутствует в базе данных
Трек 24  отсутствует в базе данных
Ни одного трека нет в базе AccurateRip
Конец отчёта
==== Контрольная сумма отчёта 3BD139059EA3CD9B03FA9A78246F1DC7FA10A515FED62A12DC17DA4ECFB915B0 ====
Код:
-----------------------
DON'T MODIFY THIS FILE
-----------------------
PERFORMER: auCDtect Task Manager, ver. 1.6.0 RC1 build 1.6.0.1
Copyright (c) 2008-2010 y-soft. All rights reserved
http://y-soft.org
ANALYZER: auCDtect: CD records authenticity detector, version 0.8.2
Copyright (c) 2004 Oleg Berngardt. All rights reserved.
Copyright (c) 2004 Alexander Djourik. All rights reserved.
FILE: Юрий Визбор - Том 05 - Так вот мое начало.flac
  Size: 315467363 Hash: 8099F0BB153B3DB8FC59FF3D1D02E90D Accuracy: -m0
  Conclusion: CDDA 100%
  Signature: 51B1068C39347839C069FD6D82D1303255278038
Трек лист:
01. Волейбол на Сретенке
02. Охотный ряд
03. Подмосковная зима
04. Воскресенье в Москве
05. Артлото
06. Речной трамвай
07. Тёплый Стан
08. Октябрь. Садовое кольцо
09. Песня о Москве
10. О, Москва, Москва святая
11. Вставайте, граф!
12. Вставайте, граф! - 20 лет спустя, или Люси
13. Посвящение В. Смехову
14. Письмо Высоцкому
15. Давайте прощаться, друзья
16. Подмосковная
17. Моим друзьям
Код:
Exact Audio Copy V1.0 beta 3 from 29. August 2011
Отчёт EAC об извлечении, выполненном 3. сентября 2013, 14:03
Юрий Визбор / Том 06 - Московские маршруты
Дисковод: _NEC    DVD+-RW ND-6650A   Adapter: 2  ID: 0
Режим чтения                 : Достоверность
Использование точного потока : Да
Отключение кэша аудио        : Да
Использование указателей C2  : Нет
Коррекция смещения при чтении                     : 48
Способность читать области Lead-in и Lead-out     : Нет
Заполнение пропущенных сэмплов тишиной            : Да
Удаление блоков с тишиной в начале и конце        : Нет
При вычислениях CRC использовались нулевые сэмплы : Да
Интерфейс                                         : Встроенный Win32-интерфейс для Win NT/2000
Выходной формат          : Пользовательский кодировщик
Выбранный битрейт        : 128 kBit/s
Качество                 : Высокий
Добавление ID3-тега      : Нет
Утилита сжатия           : C:\Program Files\Exact Audio Copy\Flac\flac.exe
Дополнительные параметры : -V -8 -T "Date=%year%" -T "Genre=%genre%" %source%
TOC извлечённого CD
     Трек |   Старт  | Длительность | Начальный сектор | Конечный сектор
    ---------------------------------------------------------------------
       1  |  0:00.00 |    5:41.70   |           0      |      25644
       2  |  5:41.70 |    1:38.37   |       25645      |      33031
       3  |  7:20.32 |    1:40.40   |       33032      |      40571
       4  |  9:00.72 |    2:42.56   |       40572      |      52777
       5  | 11:43.53 |    3:01.56   |       52778      |      66408
       6  | 14:45.34 |    3:14.10   |       66409      |      80968
       7  | 17:59.44 |    1:41.37   |       80969      |      88580
       8  | 19:41.06 |    3:08.45   |       88581      |     102725
       9  | 22:49.51 |    2:22.64   |      102726      |     113439
      10  | 25:12.40 |    1:48.67   |      113440      |     121606
      11  | 27:01.32 |    2:25.21   |      121607      |     132502
      12  | 29:26.53 |    4:15.14   |      132503      |     151641
      13  | 33:41.67 |    2:49.20   |      151642      |     164336
      14  | 36:31.12 |    3:38.66   |      164337      |     180752
      15  | 40:10.03 |    2:07.25   |      180753      |     190302
      16  | 42:17.28 |    2:20.32   |      190303      |     200834
      17  | 44:37.60 |    3:15.30   |      200835      |     215489
Характеристики диапазона извлечения и сообщения об ошибках
Выбранный диапазон
     Имя файла H:\ \Юрий Визбор - Собрание сочинений в 10 томах (1999)\Юрий Визбор - Собрание сочинений Том 06\Юрий Визбор - Том 06 - Московские маршруты.wav
     Пиковый уровень 74.7 %
     Скорость извлечения 2.6 X
     Качество диапазона 100.0 %
     CRC теста 52167F02
     CRC копии 52167F02
     Копирование... OK
Ошибок не произошло
AccurateRip: сводка
Трек  1  отсутствует в базе данных
Трек  2  отсутствует в базе данных
Трек  3  отсутствует в базе данных
Трек  4  отсутствует в базе данных
Трек  5  отсутствует в базе данных
Трек  6  отсутствует в базе данных
Трек  7  отсутствует в базе данных
Трек  8  отсутствует в базе данных
Трек  9  отсутствует в базе данных
Трек 10  отсутствует в базе данных
Трек 11  отсутствует в базе данных
Трек 12  отсутствует в базе данных
Трек 13  отсутствует в базе данных
Трек 14  отсутствует в базе данных
Трек 15  отсутствует в базе данных
Трек 16  отсутствует в базе данных
Трек 17  отсутствует в базе данных
Ни одного трека нет в базе AccurateRip
Конец отчёта
==== Контрольная сумма отчёта CB00DAAB4ADBB158CCE7A4AD706E6CE48D416CAB9AD8559A211C501EB3C06EA3 ====
Код:
-----------------------
DON'T MODIFY THIS FILE
-----------------------
PERFORMER: auCDtect Task Manager, ver. 1.6.0 RC1 build 1.6.0.1
Copyright (c) 2008-2010 y-soft. All rights reserved
http://y-soft.org
ANALYZER: auCDtect: CD records authenticity detector, version 0.8.2
Copyright (c) 2004 Oleg Berngardt. All rights reserved.
Copyright (c) 2004 Alexander Djourik. All rights reserved.
FILE: Юрий Визбор - Том 06 - Московские маршруты.flac
  Size: 240248395 Hash: A5CA8B7D4227AE8754263FBBAC80086D Accuracy: -m0
  Conclusion: CDDA 100%
  Signature: CAFD0FF02AB08E74BE9A0A12413D8BDBACA8A931
Трек лист:
01. Телефон
02. Такси
03. Женщина
04. Семейный диалог
05. Западный Берлин
06. Блажен, кто поражен летящей пулей
07. Песенка о наивных тайнах
08. Водные лыжи
09. Парень Нос
10. Он идёт по кривому переулку
11. Верёвочка
12. Жак Ландре
13. Рассказ технолога Петухова
14. Мама, я хочу домой
15. Весёлый репортер
16. Укушенный
17. Излишний вес
18. Радуга
19. Зелёное перо
20. Я думаю о Вас
21. Как я летал на самолёте
22. Английский язык
23. Рассказ женщины
24. 'Спартак' на Памире
Код:
Exact Audio Copy V1.0 beta 3 from 29. August 2011
Отчёт EAC об извлечении, выполненном 3. сентября 2013, 14:46
Юрий Визбор / Том 07 - Семейный диалог
Дисковод: _NEC    DVD+-RW ND-6650A   Adapter: 2  ID: 0
Режим чтения                 : Достоверность
Использование точного потока : Да
Отключение кэша аудио        : Да
Использование указателей C2  : Нет
Коррекция смещения при чтении                     : 48
Способность читать области Lead-in и Lead-out     : Нет
Заполнение пропущенных сэмплов тишиной            : Да
Удаление блоков с тишиной в начале и конце        : Нет
При вычислениях CRC использовались нулевые сэмплы : Да
Интерфейс                                         : Встроенный Win32-интерфейс для Win NT/2000
Выходной формат          : Пользовательский кодировщик
Выбранный битрейт        : 128 kBit/s
Качество                 : Высокий
Добавление ID3-тега      : Нет
Утилита сжатия           : C:\Program Files\Exact Audio Copy\Flac\flac.exe
Дополнительные параметры : -V -8 -T "Date=%year%" -T "Genre=%genre%" %source%
TOC извлечённого CD
     Трек |   Старт  | Длительность | Начальный сектор | Конечный сектор
    ---------------------------------------------------------------------
       1  |  0:00.00 |    2:22.32   |           0      |      10681
       2  |  2:22.32 |    2:05.41   |       10682      |      20097
       3  |  4:27.73 |    1:47.19   |       20098      |      28141
       4  |  6:15.17 |    2:58.61   |       28142      |      41552
       5  |  9:14.03 |    1:34.30   |       41553      |      48632
       6  | 10:48.33 |    3:07.43   |       48633      |      62700
       7  | 13:56.01 |    3:37.70   |       62701      |      79045
       8  | 17:33.71 |    1:23.65   |       79046      |      85335
       9  | 18:57.61 |    1:58.65   |       85336      |      94250
      10  | 20:56.51 |    1:30.00   |       94251      |     101000
      11  | 22:26.51 |    1:30.65   |      101001      |     107815
      12  | 23:57.41 |    1:36.17   |      107816      |     115032
      13  | 25:33.58 |    2:25.52   |      115033      |     125959
      14  | 27:59.35 |    2:36.55   |      125960      |     137714
      15  | 30:36.15 |    1:36.62   |      137715      |     144976
      16  | 32:13.02 |    2:44.17   |      144977      |     157293
      17  | 34:57.19 |    2:30.59   |      157294      |     168602
      18  | 37:28.03 |    3:18.41   |      168603      |     183493
      19  | 40:46.44 |    1:33.45   |      183494      |     190513
      20  | 42:20.14 |    1:46.66   |      190514      |     198529
      21  | 44:07.05 |    4:21.56   |      198530      |     218160
      22  | 48:28.61 |    2:43.71   |      218161      |     230456
      23  | 51:12.57 |    3:31.38   |      230457      |     246319
      24  | 54:44.20 |    2:32.71   |      246320      |     257790
Характеристики диапазона извлечения и сообщения об ошибках
Выбранный диапазон
     Имя файла H:\ \Юрий Визбор - Собрание сочинений в 10 томах (1999)\Юрий Визбор - Собрание сочинений Том 07\Юрий Визбор - Том 07 - Семейный диалог.wav
     Пиковый уровень 74.0 %
     Скорость извлечения 3.7 X
     Качество диапазона 99.9 %
     CRC теста A00D5DEA
     CRC копии A00D5DEA
     Копирование... OK
Ошибок не произошло
AccurateRip: сводка
Трек  1  отсутствует в базе данных
Трек  2  отсутствует в базе данных
Трек  3  отсутствует в базе данных
Трек  4  отсутствует в базе данных
Трек  5  отсутствует в базе данных
Трек  6  отсутствует в базе данных
Трек  7  отсутствует в базе данных
Трек  8  отсутствует в базе данных
Трек  9  отсутствует в базе данных
Трек 10  отсутствует в базе данных
Трек 11  отсутствует в базе данных
Трек 12  отсутствует в базе данных
Трек 13  отсутствует в базе данных
Трек 14  отсутствует в базе данных
Трек 15  отсутствует в базе данных
Трек 16  отсутствует в базе данных
Трек 17  отсутствует в базе данных
Трек 18  отсутствует в базе данных
Трек 19  отсутствует в базе данных
Трек 20  отсутствует в базе данных
Трек 21  отсутствует в базе данных
Трек 22  отсутствует в базе данных
Трек 23  отсутствует в базе данных
Трек 24  отсутствует в базе данных
Ни одного трека нет в базе AccurateRip
Конец отчёта
==== Контрольная сумма отчёта 5F2003AA3C5C6E321232EE04E9A6AF761077AEB25A7154FB2177465DFA3D012D ====
Код:
-----------------------
DON'T MODIFY THIS FILE
-----------------------
PERFORMER: auCDtect Task Manager, ver. 1.6.0 RC1 build 1.6.0.1
Copyright (c) 2008-2010 y-soft. All rights reserved
http://y-soft.org
ANALYZER: auCDtect: CD records authenticity detector, version 0.8.2
Copyright (c) 2004 Oleg Berngardt. All rights reserved.
Copyright (c) 2004 Alexander Djourik. All rights reserved.
FILE: Юрий Визбор - Том 07 - Семейный диалог.flac
  Size: 277350764 Hash: 24D3D74B7AAF1DC928F138B2D81C41E3 Accuracy: -m0
  Conclusion: CDDA 100%
  Signature: 9BED41CE0F52BF1070D44A6248315318C7CA3B91
Трек лист:
01. Распахнутые ветра
02. Скальные волчьи ворота
03. Настанет день
04. Теберда
05. Синие горы
06. Два Когутая
07. В горах дожди
08. Песня альпинистов
09. Горнолыжная
10. Фанские горы
11. Взметнулась вверх рука
12. Снег над лагерем валит
13. Непогода в горах
14. Горнолыжник (посв. В. Мельникову)
15. Снегопад
16. Памирская песня
17. Хибины
18. Цейская
Код:
Exact Audio Copy V1.0 beta 3 from 29. August 2011
Отчёт EAC об извлечении, выполненном 3. сентября 2013, 15:30
Юрий Визбор / Том 08 - Синие горы
Дисковод: _NEC    DVD+-RW ND-6650A   Adapter: 2  ID: 0
Режим чтения                 : Достоверность
Использование точного потока : Да
Отключение кэша аудио        : Да
Использование указателей C2  : Нет
Коррекция смещения при чтении                     : 48
Способность читать области Lead-in и Lead-out     : Нет
Заполнение пропущенных сэмплов тишиной            : Да
Удаление блоков с тишиной в начале и конце        : Нет
При вычислениях CRC использовались нулевые сэмплы : Да
Интерфейс                                         : Встроенный Win32-интерфейс для Win NT/2000
Выходной формат          : Пользовательский кодировщик
Выбранный битрейт        : 128 kBit/s
Качество                 : Высокий
Добавление ID3-тега      : Нет
Утилита сжатия           : C:\Program Files\Exact Audio Copy\Flac\flac.exe
Дополнительные параметры : -V -8 -T "Date=%year%" -T "Genre=%genre%" %source%
TOC извлечённого CD
     Трек |   Старт  | Длительность | Начальный сектор | Конечный сектор
    ---------------------------------------------------------------------
       1  |  0:00.00 |    2:12.24   |           0      |       9923
       2  |  2:12.24 |    2:04.40   |        9924      |      19263
       3  |  4:16.64 |    2:50.29   |       19264      |      32042
       4  |  7:07.18 |    2:14.19   |       32043      |      42111
       5  |  9:21.37 |    1:49.62   |       42112      |      50348
       6  | 11:11.24 |    1:57.17   |       50349      |      59140
       7  | 13:08.41 |    1:20.38   |       59141      |      65178
       8  | 14:29.04 |    1:52.07   |       65179      |      73585
       9  | 16:21.11 |    1:37.38   |       73586      |      80898
      10  | 17:58.49 |    3:21.22   |       80899      |      95995
      11  | 21:19.71 |    1:07.08   |       95996      |     101028
      12  | 22:27.04 |    2:51.28   |      101029      |     113881
      13  | 25:18.32 |    2:00.45   |      113882      |     122926
      14  | 27:19.02 |    1:49.14   |      122927      |     131115
      15  | 29:08.16 |    2:44.30   |      131116      |     143445
      16  | 31:52.46 |    3:36.53   |      143446      |     159698
      17  | 35:29.24 |    2:25.62   |      159699      |     170635
      18  | 37:55.11 |    2:20.36   |      170636      |     181171
Характеристики диапазона извлечения и сообщения об ошибках
Выбранный диапазон
     Имя файла H:\ \Юрий Визбор - Собрание сочинений в 10 томах (1999)\Юрий Визбор - Собрание сочинений Том 08\Юрий Визбор - Том 08 - Синие горы.wav
     Пиковый уровень 85.8 %
     Скорость извлечения 3.4 X
     Качество диапазона 99.9 %
     CRC теста B94CD4E4
     CRC копии B94CD4E4
     Копирование... OK
Ошибок не произошло
AccurateRip: сводка
Трек  1  : извлечено точно (доверие 1)  [3002D3FC]  (AR v1)
Трек  2  : извлечено точно (доверие 1)  [5061AF0B]  (AR v1)
Трек  3  : извлечено точно (доверие 1)  [94539E36]  (AR v1)
Трек  4  : извлечено точно (доверие 1)  [14905802]  (AR v1)
Трек  5  : извлечено точно (доверие 1)  [E1D70150]  (AR v1)
Трек  6  : извлечено точно (доверие 1)  [61E57F29]  (AR v1)
Трек  7  : извлечено точно (доверие 1)  [9B8C2D39]  (AR v1)
Трек  8  : извлечено точно (доверие 1)  [1F14D429]  (AR v1)
Трек  9  : извлечено точно (доверие 1)  [B39AE3A7]  (AR v1)
Трек 10  : извлечено точно (доверие 1)  [584C0592]  (AR v1)
Трек 11  : извлечено точно (доверие 1)  [59190DBF]  (AR v1)
Трек 12  : извлечено точно (доверие 1)  [7864B33D]  (AR v1)
Трек 13  : извлечено точно (доверие 1)  [A63BA0BF]  (AR v1)
Трек 14  : извлечено точно (доверие 1)  [F9383EBB]  (AR v1)
Трек 15  : извлечено точно (доверие 1)  [AB23A3C1]  (AR v1)
Трек 16  : извлечено точно (доверие 1)  [8660A10A]  (AR v1)
Трек 17  : извлечено точно (доверие 1)  [46F7EF55]  (AR v1)
Трек 18  : извлечено точно (доверие 1)  [2D05A8EB]  (AR v1)
Все треки извлечены точно
Конец отчёта
==== Контрольная сумма отчёта D8C9926222926CD766471487B1CC8D47E6A7DED24BA244896CB200EF49453F30 ====
Код:
-----------------------
DON'T MODIFY THIS FILE
-----------------------
PERFORMER: auCDtect Task Manager, ver. 1.6.0 RC1 build 1.6.0.1
Copyright (c) 2008-2010 y-soft. All rights reserved
http://y-soft.org
ANALYZER: auCDtect: CD records authenticity detector, version 0.8.2
Copyright (c) 2004 Oleg Berngardt. All rights reserved.
Copyright (c) 2004 Alexander Djourik. All rights reserved.
FILE: Юрий Визбор - Том 08 - Синие горы.flac
  Size: 198809040 Hash: 7B8E82CD407E41DD4AD6F0DD1C2FF2C4 Accuracy: -m0
  Conclusion: CDDA 100%
  Signature: 98541E5F8B3A358DB5168C6CC490C3ABAC792902
Трек лист:
01. Домбайский вальс
02. Ночь летнего солнцестояния (посв. Э. Урусбаевой)
03. Карельский вальс
04. Следы
05. Велосипед
06. Хижина
07. Азиатская песня
08. Речка Нара
09. Романс
10. Прощание с Сибирью
11. Слаломисты
12. У дороги корчма
13. Кандалакша
14. Здравствуй, я вернулся!
15. Третий полюс
16. Шхельда
17. На плато Росвумчорр
18. Поминки
19. Непогода в горах
20. Передо мною горы и река
21. Здравствуй, осень!
22. Хамар-Дабан
23. Да обойдут тебя лавины
24. Трасса Хорог - Ош
25. Не устало небо плакать
26. Июльские снега
Код:
Exact Audio Copy V1.0 beta 3 from 29. August 2011
Отчёт EAC об извлечении, выполненном 3. сентября 2013, 16:12
Юрий Визбор / Том 09 - Здравствуй, я вернулся
Дисковод: _NEC    DVD+-RW ND-6650A   Adapter: 2  ID: 0
Режим чтения                 : Достоверность
Использование точного потока : Да
Отключение кэша аудио        : Да
Использование указателей C2  : Нет
Коррекция смещения при чтении                     : 48
Способность читать области Lead-in и Lead-out     : Нет
Заполнение пропущенных сэмплов тишиной            : Да
Удаление блоков с тишиной в начале и конце        : Нет
При вычислениях CRC использовались нулевые сэмплы : Да
Интерфейс                                         : Встроенный Win32-интерфейс для Win NT/2000
Выходной формат          : Пользовательский кодировщик
Выбранный битрейт        : 128 kBit/s
Качество                 : Высокий
Добавление ID3-тега      : Нет
Утилита сжатия           : C:\Program Files\Exact Audio Copy\Flac\flac.exe
Дополнительные параметры : -V -8 -T "Date=%year%" -T "Genre=%genre%" %source%
TOC извлечённого CD
     Трек |   Старт  | Длительность | Начальный сектор | Конечный сектор
    ---------------------------------------------------------------------
       1  |  0:00.00 |    2:09.54   |           0      |       9728
       2  |  2:09.54 |    2:15.08   |        9729      |      19861
       3  |  4:24.62 |    1:29.02   |       19862      |      26538
       4  |  5:53.64 |    1:47.05   |       26539      |      34568
       5  |  7:40.69 |    2:07.17   |       34569      |      44110
       6  |  9:48.11 |    1:37.73   |       44111      |      51458
       7  | 11:26.09 |    2:34.59   |       51459      |      63067
       8  | 14:00.68 |    2:00.35   |       63068      |      72102
       9  | 16:01.28 |    2:33.32   |       72103      |      83609
      10  | 18:34.60 |    3:21.73   |       83610      |      98757
      11  | 21:56.58 |    2:08.32   |       98758      |     108389
      12  | 24:05.15 |    1:56.60   |      108390      |     117149
      13  | 26:02.00 |    2:32.42   |      117150      |     128591
      14  | 28:34.42 |    1:55.03   |      128592      |     137219
      15  | 30:29.45 |    3:07.64   |      137220      |     151308
      16  | 33:37.34 |    1:48.74   |      151309      |     159482
      17  | 35:26.33 |    2:54.36   |      159483      |     172568
      18  | 38:20.69 |    2:02.34   |      172569      |     181752
      19  | 40:23.28 |    2:27.44   |      181753      |     192821
      20  | 42:50.72 |    4:18.69   |      192822      |     212240
      21  | 47:09.66 |    2:10.29   |      212241      |     222019
      22  | 49:20.20 |    1:51.60   |      222020      |     230404
      23  | 51:12.05 |    2:27.29   |      230405      |     241458
      24  | 53:39.34 |    1:21.74   |      241459      |     247607
      25  | 55:01.33 |    1:21.68   |      247608      |     253750
      26  | 56:23.26 |    1:41.14   |      253751      |     261339
Характеристики диапазона извлечения и сообщения об ошибках
Выбранный диапазон
     Имя файла H:\ \Юрий Визбор - Собрание сочинений в 10 томах (1999)\Юрий Визбор - Собрание сочинений Том 09\Юрий Визбор - Том 09 - Здравствуй, я вернулся.wav
     Пиковый уровень 75.5 %
     Скорость извлечения 3.6 X
     Качество диапазона 100.0 %
     CRC теста 54232C4F
     CRC копии 54232C4F
     Копирование... OK
Ошибок не произошло
AccurateRip: сводка
Трек  1  отсутствует в базе данных
Трек  2  отсутствует в базе данных
Трек  3  отсутствует в базе данных
Трек  4  отсутствует в базе данных
Трек  5  отсутствует в базе данных
Трек  6  отсутствует в базе данных
Трек  7  отсутствует в базе данных
Трек  8  отсутствует в базе данных
Трек  9  отсутствует в базе данных
Трек 10  отсутствует в базе данных
Трек 11  отсутствует в базе данных
Трек 12  отсутствует в базе данных
Трек 13  отсутствует в базе данных
Трек 14  отсутствует в базе данных
Трек 15  отсутствует в базе данных
Трек 16  отсутствует в базе данных
Трек 17  отсутствует в базе данных
Трек 18  отсутствует в базе данных
Трек 19  отсутствует в базе данных
Трек 20  отсутствует в базе данных
Трек 21  отсутствует в базе данных
Трек 22  отсутствует в базе данных
Трек 23  отсутствует в базе данных
Трек 24  отсутствует в базе данных
Трек 25  отсутствует в базе данных
Трек 26  отсутствует в базе данных
Ни одного трека нет в базе AccurateRip
Конец отчёта
==== Контрольная сумма отчёта 14E1EFDBBA6166D35CD230D44F076B501CB9632C374FFD83066C9E6EC3C31DF9 ====
Код:
-----------------------
DON'T MODIFY THIS FILE
-----------------------
PERFORMER: auCDtect Task Manager, ver. 1.6.0 RC1 build 1.6.0.1
Copyright (c) 2008-2010 y-soft. All rights reserved
http://y-soft.org
ANALYZER: auCDtect: CD records authenticity detector, version 0.8.2
Copyright (c) 2004 Oleg Berngardt. All rights reserved.
Copyright (c) 2004 Alexander Djourik. All rights reserved.
FILE: Юрий Визбор - Том 09 - Здравствуй, я вернулся.flac
  Size: 284835431 Hash: EAA82C5B7FD799BC558F4DBDD88DFAC3 Accuracy: -m0
  Conclusion: CDDA 100%
  Signature: 5014C90A81F3B9E64B73D12247A692580C6CE389
Трек лист:
01. Спокойно, товарищ (посв. В. Самойловичу)
02. Воспоминание о пехоте
03. Серега Санин
04. Сретенский двор
05. Командир подлодки
06. Море серое
07. Ветер в соснах высоких качается
08. Не грусти, сержант
09. Капитан ВВС Донцов
10. Рассказ ветерана
11. Базука
12. Утренний рейс Москва - Ленинград
13. По краю воронок
14. Цена жизни
15. Разрешите войти, господин генерал
16. Десантники слушают музыку
17. Деревянный самолет
18. Военные фотографии
Код:
Exact Audio Copy V1.0 beta 3 from 29. August 2011
Отчёт EAC об извлечении, выполненном 3. сентября 2013, 17:01
Юрий Визбор / Том 10 - Воспоминание о пехоте
Дисковод: _NEC    DVD+-RW ND-6650A   Adapter: 2  ID: 0
Режим чтения                 : Достоверность
Использование точного потока : Да
Отключение кэша аудио        : Да
Использование указателей C2  : Нет
Коррекция смещения при чтении                     : 48
Способность читать области Lead-in и Lead-out     : Нет
Заполнение пропущенных сэмплов тишиной            : Да
Удаление блоков с тишиной в начале и конце        : Нет
При вычислениях CRC использовались нулевые сэмплы : Да
Интерфейс                                         : Встроенный Win32-интерфейс для Win NT/2000
Выходной формат          : Пользовательский кодировщик
Выбранный битрейт        : 128 kBit/s
Качество                 : Высокий
Добавление ID3-тега      : Нет
Утилита сжатия           : C:\Program Files\Exact Audio Copy\Flac\flac.exe
Дополнительные параметры : -V -8 -T "Date=%year%" -T "Genre=%genre%" %source%
TOC извлечённого CD
     Трек |   Старт  | Длительность | Начальный сектор | Конечный сектор
    ---------------------------------------------------------------------
       1  |  0:00.00 |    1:39.04   |           0      |       7428
       2  |  1:39.04 |    2:42.58   |        7429      |      19636
       3  |  4:21.62 |    2:36.02   |       19637      |      31338
       4  |  6:57.64 |    2:43.28   |       31339      |      43591
       5  |  9:41.17 |    2:18.47   |       43592      |      53988
       6  | 11:59.64 |    2:51.27   |       53989      |      66840
       7  | 14:51.16 |    2:30.54   |       66841      |      78144
       8  | 17:21.70 |    1:22.10   |       78145      |      84304
       9  | 18:44.05 |    2:06.68   |       84305      |      93822
      10  | 20:50.73 |    2:32.03   |       93823      |     105225
      11  | 23:23.01 |    1:43.10   |      105226      |     112960
      12  | 25:06.11 |    2:52.57   |      112961      |     125917
      13  | 27:58.68 |    1:59.38   |      125918      |     134880
      14  | 29:58.31 |    3:29.67   |      134881      |     150622
      15  | 33:28.23 |    1:08.62   |      150623      |     155784
      16  | 34:37.10 |    1:24.39   |      155785      |     162123
      17  | 36:01.49 |    2:15.22   |      162124      |     172270
      18  | 38:16.71 |    2:18.32   |      172271      |     182652
Характеристики диапазона извлечения и сообщения об ошибках
Выбранный диапазон
     Имя файла H:\ \Юрий Визбор - Собрание сочинений в 10 томах (1999)\Юрий Визбор - Собрание сочинений Том 10\Юрий Визбор - Том 10 - Воспоминание о пехоте.wav
     Пиковый уровень 75.4 %
     Скорость извлечения 3.4 X
     Качество диапазона 100.0 %
     CRC теста 58FDFFD6
     CRC копии 58FDFFD6
     Копирование... OK
Ошибок не произошло
AccurateRip: сводка
Трек  1  отсутствует в базе данных
Трек  2  отсутствует в базе данных
Трек  3  отсутствует в базе данных
Трек  4  отсутствует в базе данных
Трек  5  отсутствует в базе данных
Трек  6  отсутствует в базе данных
Трек  7  отсутствует в базе данных
Трек  8  отсутствует в базе данных
Трек  9  отсутствует в базе данных
Трек 10  отсутствует в базе данных
Трек 11  отсутствует в базе данных
Трек 12  отсутствует в базе данных
Трек 13  отсутствует в базе данных
Трек 14  отсутствует в базе данных
Трек 15  отсутствует в базе данных
Трек 16  отсутствует в базе данных
Трек 17  отсутствует в базе данных
Трек 18  отсутствует в базе данных
Ни одного трека нет в базе AccurateRip
Конец отчёта
==== Контрольная сумма отчёта 57CC70C2D7C6E7B30E04E06B4DFA7B13C13CB9464A4776501BE55B1B95358779 ====
Код:
-----------------------
DON'T MODIFY THIS FILE
-----------------------
PERFORMER: auCDtect Task Manager, ver. 1.6.0 RC1 build 1.6.0.1
Copyright (c) 2008-2010 y-soft. All rights reserved
http://y-soft.org
ANALYZER: auCDtect: CD records authenticity detector, version 0.8.2
Copyright (c) 2004 Oleg Berngardt. All rights reserved.
Copyright (c) 2004 Alexander Djourik. All rights reserved.
FILE: Юрий Визбор - Том 10 - Воспоминание о пехоте.flac
  Size: 198118287 Hash: 4C616D6C44C268B98C0A578171976A07 Accuracy: -m0
  Conclusion: CDDA 100%
  Signature: F85E2CD86BD9FBC3F010AFFFEB96047314B64D3B
Релиз полностью готов к воспроизведению в аудиоплеере foobar2000
При скачивании, если необходимо, переименуйте папку, в которой будут находиться альбомы
Оставайтесь на раздаче и наслаждайтесь любимой музыкой!
Не забываем говорить "Спасибо"!
Комментарии приветствуются!
Спасибо за
Время раздачи: По возможности 24/7
[NNM-Club.me]_YUriy Vizbor - Sobranie sochineniy v 10 tomah (1999).torrent
 Торрент: Платиновая раздача  Зарегистрирован
 
Скачать


Примагнититься
 Зарегистрирован:   05 Сен 2013 09:40:22
 Размер:   2,16 GB  (
 Рейтинг:   4,9 (Голосов: 68)
 Поблагодарили:   227
 Проверка:   Оформление проверено модератором 05 Сен 2013 10:25:13
Как cкачать  ·  Как раздать  ·  Правильно оформить  ·  Поднять ратио!  
gvm55
Зам. Куратора Музыки
Спонсор и Реставратор Клуба, Uploader 100+
Стаж: 10 лет 5 мес.
Сообщений: 4335
Ratio: 156,766
Раздал: 152,7 TB
Поблагодарили: 63166
100%
Откуда: SPb
nnm-club.gif
Здравствуйте, товарищи участники!
Ветер мнет палаток паруса,
Горы, накрахмаленные тщательно,
Гордо подпирают небеса.
Припев:
Радостным пусть будет расставание,
Наши огорчения— не в счет.
Горы— это вечное свидание
С теми, кто ушел и кто придет.
Ах, зачем вам эти приключения?
Можно жить, ребята, не спеша.
Но исполнен важного значения
Каждый высоту дающий шаг.
Припев.
За горою вечер догорающий,
Путь наш и не легок, и не скор,
И живут в сердцах у нас товарищи,
Те, кто больше не увидит гор.
Припев.
Но потом, вернувшись с восхождения,
Чаю мы напьемся от души,
И горит в глазах до изумления
Солнце, принесенное с вершин.

_________________
Исправил релиз - напиши мне в со ссылкой на него.
Колыч ®
Модератор Музыки
Спонсор Uploader 1000+
Стаж: 11 лет 7 мес.
Сообщений: 7803
Ratio: 4015,839
Поблагодарили: 544290
100%
gvm55
Чуть подправил... =)
DEMONIY 2011
Стаж: 7 лет 8 мес.
Сообщений: 400
Ratio: 311,319
Раздал: 41,61 TB
100%
А посвящения сухареву тут нет, или это я не найду?

_________________
В Интернете можно найти не только то, что "любит наш народ".
Vit_r
 
Стаж: 10 лет 4 мес.
Сообщений: 109
Ratio: 80,763
Раздал: 84,44 TB
100%
Откуда: РФ
russia.gif
Почему в томе 1 нет собственно песен, только обложки и тексты?

P.S. Прочитал внимательно, что отсутствует том 1. Понял.
Спасибо за раздачу.
Показать сообщения:   
Начать новую тему   Ответить на тему    Торрент-трекер NNM-Club -> Шансон, Авторская и Военная песня -> Авторская и Военная песня (Lossless) Часовой пояс: GMT + 3
Страница 1 из 1