Классический форум-трекер
canvas not supported
Нас вместе: 4 079 092

Ookami Kodomo no Ame to Yuki / Wolf Children / Волчьи дети Амэ и Юки [2012, MV] BDRemux 1080p Raw+Rus


 
 
RSS
Начать новую тему   Ответить на тему    Торрент-трекер NNM-Club -> Аниме разное -> Аниме Blu-ray, Remux
Автор Сообщение
Roman|Ru$ ®
Стаж: 9 лет 1 мес.
Сообщений: 414
Ratio: 7,669
Раздал: 5,622 TB
Поблагодарили: 176
100%
russia.gif
Ookami Kodomo no Ame to Yuki / Wolf Children / Волчьи дети Амэ и Юки
Страна: Япония
Жанр: Драма, Повседневность
Тип: Фильм
Продолжительность: 01:57:03
Качество видео: BDRemux
Дата премьеры / период выхода: 21 июля 2012 года
Производство/студия: Studio Chizu
Автор оригинала: Хосода Мамору
Режиссер: Хосода Мамору
Перевод:
  • русские субтитры от Reanimedia (полные / надписи)
  • русские субтитры от Semyon44 & Mirron
  • английские субтитры от Commie

Озвучка:
  • полное дублирование от Reanimedia
  • двухголосая (жен., муж.) от Milirina & Sad_Kit (Anything Group)
  • многоголосая от Renegade team
    (Breeze, Azart, ZoHaN, LaSIK, Molibden & Hyver)

Описание:
Юки и Амэ — только с виду обычные дети, которым должны быть нипочем тяготы окружающего мира. Когда погибает их отец, последний представитель древнего рода оборотней, их матери — обыкновенной девушке, когда-то влюбившейся в человека, оказавшегося волком — приходится переехать подальше от большого города и начать все сначала.
Битрейт видео: ~34695 kb/s
Размер кадра: 1920 x 1080
Аудио RUS#1: DTS, 1536 kbps, 48000 Hz, 6 ch - Reanimedia
Аудио RUS#2: AC3, 192 Kbps, 48000 Hz, 2ch - Milirina & Sad_Kit
Аудио RUS#3: AC3, 448 Kbps, 48000 Hz, 6ch - Renegade team
Аудио JAP: DTS-HD MA, 48000Hz, 3814 Kbps, 6ch
Язык подключаемых субтитров: Русский, Английский
Сэмпл
Формат : Matroska
Версия формата : Version 2
Размер файла : 33,2 Гбайт
Продолжительность : 1 ч. 57 м.
Режим общего битрейта : Переменный
Общий поток : 40,7 Мбит/сек
Дата кодирования : UTC 2014-08-28 10:07:50
Программа кодирования : mkvmerge v5.8.0 ('No Sleep / Pillow') built on Sep 2 2012 15:37:04
Библиотека кодирования : libebml v1.2.3 + libmatroska v1.3.0

Видео
Идентификатор : 1
Формат : AVC
Формат/Информация : Advanced Video Codec
Профиль формата : High@L4.1
Параметр CABAC формата : Да
Параметр ReFrames формата : 4 кадра
Режим смешивания : Container profile=Unknown@0.0
Идентификатор кодека : V_MPEG4/ISO/AVC
Продолжительность : 1 ч. 57 м.
Вид битрейта : Переменный
Максимальный битрейт : 38,0 Мбит/сек
Ширина : 1920 пикселей
Высота : 1080 пикселей
Соотношение сторон : 16:9
Режим частоты кадров : Постоянный
Частота кадров : 23,976 кадра/сек
Цветовое пространство : YUV
Субдискретизация насыщенности : 4:2:0
Битовая глубина : 8 бит
Тип развёртки : Прогрессивная
Default : Нет
Forced : Нет

Аудио #1
Идентификатор : 2
Формат : DTS
Формат/Информация : Digital Theater Systems
Режим : 16
Параметр Endianness формата : Big
Идентификатор кодека : A_DTS
Продолжительность : 1 ч. 57 м.
Вид битрейта : Постоянный
Битрейт : 1509 Кбит/сек
Каналы : 6 каналов
Расположение каналов : Front: L C R, Side: L R, LFE
Частота : 48,0 КГц
Битовая глубина : 24 бит
Метод сжатия : С потерями
Размер потока : 1,23 Гбайт (4%)
Заголовок : Reanimedia
Язык : Russian
Default : Да
Forced : Нет

Аудио #2
Идентификатор : 3
Формат : AC-3
Формат/Информация : Audio Coding 3
Расширение режима : CM (complete main)
Параметр Endianness формата : Big
Идентификатор кодека : A_AC3
Продолжительность : 1 ч. 57 м.
Вид битрейта : Постоянный
Битрейт : 192 Кбит/сек
Каналы : 2 канала
Расположение каналов : Front: L R
Частота : 48,0 КГц
Битовая глубина : 16 бит
Метод сжатия : С потерями
Размер потока : 161 Мбайт (0%)
Заголовок : Milirina & Sad_Kit
Язык : Russian
Default : Нет
Forced : Нет

Аудио #3
Идентификатор : 4
Формат : AC-3
Формат/Информация : Audio Coding 3
Расширение режима : CM (complete main)
Параметр Endianness формата : Big
Идентификатор кодека : A_AC3
Продолжительность : 1 ч. 57 м.
Вид битрейта : Постоянный
Битрейт : 448 Кбит/сек
Каналы : 6 каналов
Расположение каналов : Front: L C R, Side: L R, LFE
Частота : 48,0 КГц
Битовая глубина : 16 бит
Метод сжатия : С потерями
Размер потока : 375 Мбайт (1%)
Заголовок : Renegade team
Язык : Russian
Default : Нет
Forced : Нет

Аудио #4
Идентификатор : 5
Формат : DTS
Формат/Информация : Digital Theater Systems
Профиль формата : MA / Core
Режим : 16
Параметр Endianness формата : Big
Идентификатор кодека : A_DTS
Продолжительность : 1 ч. 57 м.
Вид битрейта : Переменный
Битрейт : Неизвестно / 1509 Кбит/сек
Каналы : 6 каналов
Расположение каналов : Front: L C R, Side: L R, LFE
Частота : 48,0 КГц
Битовая глубина : 24 бит
Метод сжатия : Без потерь / Lossy
Язык : Japanese
Default : Нет
Forced : Нет

Текст #1
Идентификатор : 6
Формат : UTF-8
Идентификатор кодека : S_TEXT/UTF8
Идентификатор кодека/Информация : UTF-8 Plain Text
Заголовок : Полные Reanimedia
Язык : Russian
Default : Нет
Forced : Нет

Текст #2
Идентификатор : 7
Формат : UTF-8
Идентификатор кодека : S_TEXT/UTF8
Идентификатор кодека/Информация : UTF-8 Plain Text
Заголовок : надписи
Язык : Russian
Default : Нет
Forced : Нет

Текст #3
Идентификатор : 8
Формат : ASS
Идентификатор кодека : S_TEXT/ASS
Идентификатор кодека/Информация : Advanced Sub Station Alpha
Метод сжатия : Без потерь
Заголовок : Semyon44 & Mirron
Язык : Russian
Default : Нет
Forced : Нет

Текст #4
Идентификатор : 9
Формат : ASS
Идентификатор кодека : S_TEXT/ASS
Идентификатор кодека/Информация : Advanced Sub Station Alpha
Метод сжатия : Без потерь
Заголовок : Commie
Язык : English
Default : Нет
Forced : Нет

Меню
00:00:00.000 : en:00:00:00.000
00:00:34.326 : en:00:00:34.326
00:01:56.992 : en:00:01:56.992
00:04:30.896 : en:00:04:30.896
00:07:44.214 : en:00:07:44.214
00:10:32.340 : en:00:10:32.340
00:14:00.089 : en:00:14:00.089
00:17:25.544 : en:00:17:25.544
00:22:21.507 : en:00:22:21.507
00:25:01.667 : en:00:25:01.667
00:29:44.282 : en:00:29:44.282
00:34:35.740 : en:00:34:35.740
00:38:44.239 : en:00:38:44.239
00:42:51.110 : en:00:42:51.110
00:48:30.157 : en:00:48:30.157
00:50:19.850 : en:00:50:19.850
00:53:34.711 : en:00:53:34.711
00:58:41.977 : en:00:58:41.977
01:04:37.207 : en:01:04:37.207
01:07:34.717 : en:01:07:34.717
01:10:47.285 : en:01:10:47.285
01:14:06.734 : en:01:14:06.734
01:17:58.048 : en:01:17:58.048
01:22:01.583 : en:01:22:01.583
01:25:09.604 : en:01:25:09.604
01:29:26.486 : en:01:29:26.486
01:32:59.491 : en:01:32:59.491
01:37:44.233 : en:01:37:44.233
01:44:34.310 : en:01:44:34.310
01:49:55.839 : en:01:49:55.839
01:51:48.118 : en:01:51:48.118
Скриншоты:


Время раздачи: Каждый день с 8:00 до 20:00
Оформление скопировано с чужой раздачи (автор - Reigar.)
[NNM-Club.me]_The Wolf Children Ame and Yuki [BDRemux 1080p].mkv.torrent
 Торрент: Платиновая раздача  Зарегистрирован
 
Скачать


Примагнититься
 Зарегистрирован:   31 Авг 2014 18:01:52
 Размер:   33,2 GB  (
 Рейтинг:   4,4 (Голосов: 35)
 Поблагодарили:   53
 Проверка:   Оформление проверено модератором 31 Авг 2014 18:46:09
Как cкачать  ·  Как раздать  ·  Правильно оформить  ·  Поднять ратио!  
Roman|Ru$ ®
Стаж: 9 лет 1 мес.
Сообщений: 414
Ratio: 7,669
Раздал: 5,622 TB
Поблагодарили: 176
100%
russia.gif
Некоторых возможно не устраивает данный релиз (DTS оригинальная дорожка, огромный размер, высокие требования к железу). Нужна ли будет кому-то раздача с более щадящими форматами и качеством?
OlegG88
Стаж: 8 лет 2 мес.
Сообщений: 9
Ratio: 186,789
Поблагодарили: 61
10.17%
russia.gif
Roman|Ru$ писал(а): Перейти к сообщению
Некоторых возможно не устраивает данный релиз (DTS оригинальная дорожка, огромный размер, высокие требования к железу). Нужна ли будет кому-то раздача с более щадящими форматами и качеством?

Конечно, чтобы не корячиться с конвертированием (хотя мне всё равно приходится, так что мне все равно)!
mototsuwa
Стаж: 4 года 4 мес.
Сообщений: 4
Ratio: 33,642
64.1%
Roman|Ru$
вопросец, источник ремукса известен вам? японец или от реанимедии?
Roman|Ru$ ®
Стаж: 9 лет 1 мес.
Сообщений: 414
Ratio: 7,669
Раздал: 5,622 TB
Поблагодарили: 176
100%
russia.gif
mototsuwa
Нет, неизвестен
Показать сообщения:   
Начать новую тему   Ответить на тему    Торрент-трекер NNM-Club -> Аниме разное -> Аниме Blu-ray, Remux Часовой пояс: GMT + 3
Страница 1 из 1