Классический форум-трекер
canvas not supported
Нас вместе: 4 076 598

Три мушкетера (2005) DVDRip


 
 
RSS
Начать новую тему   Ответить на тему    Торрент-трекер NNM-Club -> Архив торрентов -> Архив Музыкального Видео
Автор Сообщение
gromvi ®
Стаж: 7 лет 7 мес.
Сообщений: 27
Ratio: 385,691
Раздал: 282 GB
Поблагодарили: 2200
100%
ukraine.gif
Три мушкетера (2005) DVDRip
Русское название: Три мушкетера
Год выпуска: 2005
Жанр: Мюзикл, Комедия

Описание:
Главный герой, честолюбивый гасконец Д`Aртаньян, приезжает в Париж с надеждой сделать карьеру мушкетера, однако выясняется, что полк Де Тревиля — женский! Де Тревиль страдает склерозом, а дамы-мушкетеры умудряются одновременно драться на шпагах и делать маникюр. Все остальное — оружие, бриллиантовые подвески и большая любовь — осталось без изменения, в точности по сюжету Александра Дюма-отца.

Режиссер: Тина Баркалая
Актеры: Алена Свиридова, Руслана Писанка, Анна Ардова, Владимир Зеленский, Андрей Данилко, Юлия Началова, Юрий Стоянов, Амалия Мордвинова, Армен Джигарханян, Владимир Этуш, Вилли Хаапасаоло, Стас Садальский

Продолжительность: 01:39:12



Видеокодек: Xvid
Битрейт видео: ~912 kbps
Размер кадра: 640х392
Качество видео: DVDRip
Аудиокодек: MP3 2.0
Битрейт аудио: 128 kbps
Код:

      Полное имя                               : Z:\Концерты\Три мушкетера.avi
Формат                                   : AVI
Формат/Информация                        : Audio Video Interleave
Размер файла                             : 745 Мбайт
Продолжительность                        : 1 ч. 39 м.
Общий поток                              : 1050 Кбит/сек
Название фильма                          : Три мушкетераю.DVDRip.Xvid.MP3.R.G.NasheKino
Режиссёр                                 : AMELJ
Программа кодирования                    : VirtualDubMod 1.5.10.3 | www.virtualdub-fr.org || (build 2550/release)
Правообладатель                          : R.G.NasheKino
Примечание                               : [SPAM]

Видео
Идентификатор                            : 0
Формат                                   : MPEG-4 Visual
Профиль формата                          : Advanced Simple@L5
Параметр BVOP формата                    : 2
Параметр QPel формата                    : Нет
Параметр GMC формата                     : Без точки перехода
Параметр матрицы формата                 : Default (H.263)
Идентификатор кодека                     : XVID
Идентификатор кодека/Подсказка           : XviD
Продолжительность                        : 1 ч. 39 м.
Битрейт                                  : 912 Кбит/сек
Ширина                                   : 640 пикселей
Высота                                   : 392 пикселя
Соотношение сторон                       : 1,633
Частота кадров                           : 25,000 кадров/сек
Цветовое пространство                    : YUV
Субдискретизация насыщенности            : 4:2:0
Битовая глубина                          : 8 бит
Тип развёртки                            : Прогрессивная
Метод сжатия                             : С потерями
Бит/(Пиксели*Кадры)                      : 0.145
Размер потока                            : 647 Мбайт (87%)
Библиотека кодирования                   : XviD 64

Аудио
Идентификатор                            : 1
Формат                                   : MPEG Audio
Версия формата                           : Version 1
Профиль формата                          : Layer 3
Режим                                    : Joint stereo
Расширение режима                        : MS Stereo
Идентификатор кодека                     : 55
Идентификатор кодека/Подсказка           : MP3
Продолжительность                        : 1 ч. 39 м.
Вид битрейта                             : Постоянный
Битрейт                                  : 128 Кбит/сек
Каналы                                   : 2 канала
Частота                                  : 48,0 КГц
Метод сжатия                             : С потерями
Размер потока                            : 90,8 Мбайт (12%)
Выравнивание                             : Соединение по промежуткам
Продолжительность промежутка             : 40  мс. (1,00 видеокадр)
Время предзагрузки промежутка            : 504  мс.
Библиотека кодирования                   : LAME3.98r           
Скриншоты:
[NNM-Club.ru]_Tri mushketera.avi.torrent
 Торрент: Платиновая раздача  Зарегистрирован
 
Скачать


Примагнититься
 Зарегистрирован:   07 Янв 2012 15:22:42
 Размер:   745 MB  (
 Рейтинг:   4,1 (Голосов: 15)
 Поблагодарили:   40
 Проверка:   Оформление проверено модератором 08 Янв 2012 02:58:34
Как cкачать  ·  Как раздать  ·  Правильно оформить  ·  Поднять ратио!  
Топик был перенесен из форума Опера, Балет, Мюзиклы в форум Архив Музыкального Видео

Причина переноса: Отсутствие сидов более трех месяцев.

Исправил релиз - напиши ЛС ALLic, дав ссылку на релиз.
Если нет ответа 24 часа - нажми на кнопку "Обратить внимание модераторов".
Показать сообщения:   
Начать новую тему   Ответить на тему    Торрент-трекер NNM-Club -> Архив торрентов -> Архив Музыкального Видео Часовой пояс: GMT + 3
Страница 1 из 1