Классический форум-трекер
canvas not supported
Нас вместе: 4 076 874

Цирк дю Солей: Сказочный мир / Cirque du Soleil: Worlds Away (2012) DVDRip [EN]


 
 
RSS
Начать новую тему   Ответить на тему    Торрент-трекер NNM-Club -> Архив торрентов -> Архив Музыкального Видео
Автор Сообщение
Николай Анатольевич ®
   
Почетный релизер
 
Стаж: 9 лет 7 мес.
Сообщений: 46539
Ratio: 10,32
Раздал: 7,411 TB
Поблагодарили: 2600498
100%
estonia.gif
Цирк дю Солей: Сказочный мир / Cirque du Soleil: Worlds Away (2012) DVDRip
Русское название: Цирк дю Солей: Сказочный мир
Оригинальное название: Cirque du Soleil: Worlds Away
Год выпуска: 2012
Производство: США, Reel FX Creative Studios
Жанр: Фэнтези
Перевод: Отсутствует [Лицензия]
Язык: Английский
Субтитры: Отсутствуют

Режиссер: Эндрю Адамсон
Актеры: Эрика Линц, Игорь Зарипов, Лутс Халбхюбнер, Джон Кларк, Даллас Барнетт, Таня Дрюери, Сара Хуболт, Аскья Мэйбери, Дэмиен Гордон, Зэк Бриклэнд

Описание фильма:
Удивительная история двух влюбленных, которых разлучила судьба, по мотивам лучших шоу Cirque du Soleil. Им придется пройти через многое, чтобы снова быть вместе…

Дата мировой премьеры: 20 октября 2012
Дата российской премьеры: 27 декабря 2012, «Централ Партнершип»
Дата выхода DVD релиза: 15 июня 2013, «Новый Диск»
Дата выхода Blu-Ray релиза: 15 июня 2013, «Новый Диск»
Продолжительность: 01:31:22
Качество видео: DVDRip

Видеокодек: XviD
Битрейт видео: 936 Кбит/сек
Размер кадра: 624x336
Аудио : Английский, MP3, 2 ch, 128 Кбит/сек
  • Фильм включает в себя действия из семи шоу Цирка дю Солей, демонстрировавшихся в Лас-Вегасе в 2011 году: O, Mystere, Ka, Love, Zumanity, Viva Elvis и Criss Angel Believe.
  • Каждая из частей выступления была снята на сценах театров Лас-Вегаса, где, собственно, и проходили шоу. «О» — в театре О в Белладжио, «Ka» — в театре Ka в MGM Grand, «Love» — в театре Love в Mirage, «Mystere» — в театре Mystere в Treasure Island, «Zumanity» — в театре Zumanity в New York-New York, «Viva Elvis» — в театре Aria и «Criss Angel Believe» — в театре отеля Luxor.
Код:
Общее
Полное имя                               : C:\Users\Admin\Downloads\Cirque du Soleil -Worlds Away.avi
Формат                                   : AVI
Формат/Информация                        : Audio Video Interleave
Размер файла                             : 699 Мбайт
Продолжительность                        : 1 ч. 31 м.
Режим общего битрейта                    : Переменный
Общий поток                              : 1072 Кбит/сек
Программа кодирования                    : VirtualDubMod 1.5.10.2 (build 2540/release)
Библиотека кодирования                   : VirtualDubMod build 2540/release

Видео
Идентификатор                            : 0
Формат                                   : MPEG-4 Visual
Профиль формата                          : Advanced Simple@L5
Параметр BVOP формата                    : 2
Параметр QPel формата                    : Нет
Параметр GMC формата                     : Без точки перехода
Параметр матрицы формата                 : Default (MPEG)
Режим смешивания                         : Сжатый битовый поток
Идентификатор кодека                     : XVID
Идентификатор кодека/Подсказка           : XviD
Продолжительность                        : 1 ч. 31 м.
Битрейт                                  : 936 Кбит/сек
Ширина                                   : 624 пикселя
Высота                                   : 336 пикселей
Соотношение сторон                       : 1,85:1
Частота кадров                           : 23,976 кадра/сек
Цветовое пространство                    : YUV
Субдискретизация насыщенности            : 4:2:0
Битовая глубина                          : 8 бит
Тип развёртки                            : Прогрессивная
Метод сжатия                             : С потерями
Бит/(Пиксели*Кадры)                      : 0.186
Размер потока                            : 611 Мбайт (87%)
Библиотека кодирования                   : XviD 64

Аудио
Идентификатор                            : 1
Формат                                   : MPEG Audio
Версия формата                           : Version 1
Профиль формата                          : Layer 3
Режим                                    : Joint stereo
Расширение режима                        : MS Stereo
Идентификатор кодека                     : 55
Идентификатор кодека/Подсказка           : MP3
Продолжительность                        : 1 ч. 31 м.
Вид битрейта                             : Переменный
Битрейт                                  : 128 Кбит/сек
Каналы                                   : 2 канала
Частота                                  : 48,0 КГц
Метод сжатия                             : С потерями
Размер потока                            : 80,2 Мбайт (11%)
Выравнивание                             : Соединение по промежуткам
Продолжительность промежутка             : 24  мс. (0,58 видеокадр)
Время предзагрузки промежутка            : 149  мс.
Библиотека кодирования                   : LAME3.90.
Настройки программы                      : -m j -V 4 -q 2 -lowpass 17.6 --abr 128
Скриншоты:


Время раздачи: 9.00 - 23.00 (по мере возможности...)
[NNM-Club.ru]_Cirque du Soleil -Worlds Away.avi.torrent
 Торрент: Золотая раздача  Зарегистрирован
 
Зарегистрируйтесь и скачайте торрент!
14,2 KB

Примагнититься
 Зарегистрирован:   04 Мар 2013 08:38:57
 Размер:   699 MB  (
 Рейтинг:   4,8 (Голосов: 28)
 Поблагодарили:   100
 Проверка:   Оформление проверено модератором 04 Мар 2013 09:01:55
Как cкачать  ·  Как раздать  ·  Правильно оформить  ·  Поднять ратио!  
Николай Анатольевич ®
   
Почетный релизер
 
Стаж: 9 лет 7 мес.
Сообщений: 46539
Ratio: 10,32
Раздал: 7,411 TB
Поблагодарили: 2600498
100%
estonia.gif
Все раздачи Цирк дю Солей: Сказочный мир на NoNaMe Club
Царапк@
Стаж: 8 лет 4 мес.
Сообщений: 15
Ratio: 0,644
100%
а когда будет с переводом ?
Николай Анатольевич ®
   
Почетный релизер
 
Стаж: 9 лет 7 мес.
Сообщений: 46539
Ratio: 10,32
Раздал: 7,411 TB
Поблагодарили: 2600498
100%
estonia.gif
Царапк@ писал(а):
а когда будет с переводом ?
А что там переводить-то :задумался:
Там диалогов то всего ничего, в основном музыкальное сопровождение :подмигивание:
Топик был перенесен из форума Опера, Балет, Мюзиклы в форум Архив Музыкального Видео

Причина переноса: Отсутствие сидов более трех месяцев.

Исправил релиз - напиши ЛС ALLic, дав ссылку на релиз.
Если нет ответа 24 часа - нажми на кнопку "Обратить внимание модераторов".
Показать сообщения:   
Начать новую тему   Ответить на тему    Торрент-трекер NNM-Club -> Архив торрентов -> Архив Музыкального Видео Часовой пояс: GMT + 3
Страница 1 из 1