Классический форум-трекер
canvas not supported
Нас вместе: 4 079 114

Cirque du Soleil: Сказочный мир в 3D / Cirque du Soleil: Worlds Away (2012) BDRemux [1080p] [EN / EN Sub]


 
 
RSS
Начать новую тему   Ответить на тему    Торрент-трекер NNM-Club -> Архив торрентов -> Архив Музыкального Видео
Автор Сообщение
Lelya_K ®
Стаж: 8 лет 6 мес.
Сообщений: 5538
Ratio: 7169,418
Раздал: 109,3 TB
Поблагодарили: 618949
100%
Откуда: Московская область
nnm-club.gif
Cirque du Soleil: Сказочный мир в 3D / Cirque du Soleil: Worlds Away (2012) BDRemux
Русское название: Cirque du Soleil: Сказочный мир в 3D
Оригинальное название: Cirque du Soleil: Worlds Away
Год выпуска: 2012
Производство: Cirque du Soleil Burlesco / Reel FX Creative Studios [США]
Жанр: Фэнтези
Перевод: Отсутствует
Язык: Английский
Субтитры: Вшитые отключаемые (PGS)
Язык субтитров: Английский (полные, SDH)

Режиссер: Эндрю Адамсон
Актеры: Эрика Линц, Игорь Зарипов, Лутс Халбхюбнер, Даллас Барнетт, Джон Кларк, Таня Дрюери, Сара Хуболт, Аскья Мэйбери, Дэмиен Гордон, Зэк Бриклэнд

Описание фильма:
Удивительная история двух влюбленных, которых разлучила судьба, по мотивам лучших шоу Cirque du Soleil. Им придется пройти через многое, чтобы снова быть вместе…

Дата мировой премьеры: 20 октября 2012
Дата российской премьеры: 27 декабря 2012, «ЦП»
Дата выхода DVD релиза: 15 июня 2013, «Новый Диск»
Дата выхода Blu-Ray релиза: 15 июня 2013, «Новый Диск»

Рейтинг PG - Рекомендуется присутствие родителей
Возраст 6+ - Зрителям, достигшим 6 лет




Продолжительность: 01:31:12
Качество видео: BDRemux

Видео: MPEG4_AVC/H.264, 1920x1080, ~26498 kbps, 23.976 fps
Аудио 1: DTS-HD MA 5.1, 4268 kbps [Английский - оригинал]
Аудио 2: AC3 5.1, 640 kbps [Английский - оригинал]
Полное имя : D:\Cirque.du.Soleil.Сказочный.мир.в.3D-Cirque.du.Soleil.Worlds.Away.(2012).[1080p].BDRemux.mkv
Формат : Matroska
Версия формата : Version 2
Размер файла : 20,0 Гбайт
Продолжительность : 1 ч. 31 м.
Режим общего битрейта : Переменный
Общий поток : 31,4 Мбит/сек
Название фильма : Release by Lelya_K for NNM-Club.ru
Дата кодирования : UTC 2013-03-06 01:07:05
Программа кодирования : mkvmerge v5.7.0 ('The Whirlwind') built on Aug 7 2012 14:11:40
Библиотека кодирования : libebml v1.2.3 + libmatroska v1.3.0

Видео
Идентификатор : 1
Формат : AVC
Формат/Информация : Advanced Video Codec
Профиль формата : High@L4.1
Параметр CABAC формата : Да
Параметр ReFrames формата : 2 кадра
Параметр GOP формата : M=1, N=10
Идентификатор кодека : V_MPEG4/ISO/AVC
Продолжительность : 1 ч. 31 м.
Вид битрейта : Переменный
Битрейт : 28,6 Мбит/сек
Ширина : 1920 пикселей
Высота : 1080 пикселей
Соотношение сторон : 16:9
Режим частоты кадров : Постоянный
Частота кадров : 23,976 кадра/сек
Цветовое пространство : YUV
Субдискретизация насыщенности : 4:2:0
Битовая глубина : 8 бит
Тип развёртки : Прогрессивная
Бит/(Пиксели*Кадры) : 0.575
Размер потока : 18,2 Гбайт (91%)
Заголовок : Cirque.du.Soleil.Сказочный.мир.в.3D-Cirque.du.Soleil.Worlds.Away.(2012).[1080p].BDRemux
Язык : English
Default : Да
Forced : Нет

Аудио #1
Идентификатор : 2
Формат : DTS
Формат/Информация : Digital Theater Systems
Профиль формата : MA / Core
Идентификатор кодека : A_DTS
Продолжительность : 1 ч. 31 м.
Вид битрейта : Переменный
Битрейт : 1576 Кбит/сек / 1510 Кбит/сек
Каналы : 6 каналов
Расположение каналов : Front: L C R, Side: L R, LFE
Частота : 48,0 КГц
Битовая глубина : 24 бит
Метод сжатия : Без потерь / Lossy
Заголовок : DTS-HD MA 5.1 / 4268 kbps
Язык : English
Default : Да
Forced : Нет

Аудио #2
Идентификатор : 3
Формат : AC-3
Формат/Информация : Audio Coding 3
Расширение режима : CM (complete main)
Параметр Endianness формата : Big
Идентификатор кодека : A_AC3
Продолжительность : 1 ч. 31 м.
Вид битрейта : Постоянный
Битрейт : 640 Кбит/сек
Каналы : 6 каналов
Расположение каналов : Front: L C R, Side: L R, LFE
Частота : 48,0 КГц
Битовая глубина : 16 бит
Метод сжатия : С потерями
Размер потока : 418 Мбайт (2%)
Заголовок : AC3 5.1 / 640 kbps
Язык : English
Default : Нет
Forced : Нет

Текст #1
Идентификатор : 4
Формат : PGS
Идентификатор кодека : S_HDMV/PGS
Идентификатор кодека/Информация : The same subtitle format used on BDs/HD-DVDs
Заголовок : Full
Язык : English
Default : Нет
Forced : Нет

Текст #2
Идентификатор : 5
Формат : PGS
Идентификатор кодека : S_HDMV/PGS
Идентификатор кодека/Информация : The same subtitle format used on BDs/HD-DVDs
Заголовок : SDH
Язык : English
Default : Нет
Forced : Нет

Меню
00:00:00.000 : en:Chapter 00
00:07:01.921 : en:Chapter 01
00:14:47.678 : en:Chapter 02
00:18:59.138 : en:Chapter 03
00:28:03.473 : en:Chapter 04
00:37:52.186 : en:Chapter 05
00:44:06.602 : en:Chapter 06
00:46:47.262 : en:Chapter 07
00:51:06.563 : en:Chapter 08
00:55:44.758 : en:Chapter 09
00:58:59.953 : en:Chapter 10
01:03:59.836 : en:Chapter 11
01:11:15.229 : en:Chapter 12
01:20:49.845 : en:Chapter 13
  • Фильм включает в себя действия из семи шоу Цирка дю Солей, демонстрировавшихся в Лас-Вегасе в 2011 году: O, Mystere, Ka, Love, Zumanity, Viva Elvis и Criss Angel Believe.
  • Каждая из частей выступления была снята на сценах театров Лас-Вегаса, где, собственно, и проходили шоу. «О» — в театре О в Белладжио, «Ka» — в театре Ka в MGM Grand, «Love» — в театре Love в Mirage, «Mystere» — в театре Mystere в Treasure Island, «Zumanity» — в театре Zumanity в New York-New York, «Viva Elvis» — в театре Aria и «Criss Angel Believe» — в театре отеля Luxor.

Скриншоты:


Время раздачи: 24/7 (до 10 скачавших)

Все релизы «Cirque du Soleil: Сказочный мир в 3D» на NNM-Club
[NNM-Club.ru]_Cirque.du.Soleil.Skazochnyiy.mir.v.3D-Cirque.du.Soleil.Worlds.Away.(2012).[1080p].BDRemux.mkv.torrent
 Торрент: Золотая раздача  Зарегистрирован
 
Зарегистрируйтесь и скачайте торрент!
50,4 KB

Примагнититься
 Зарегистрирован:   06 Мар 2013 05:49:59
 Размер:   20 GB  (
 Рейтинг:   5 (Голосов: 22)
 Поблагодарили:   89
 Проверка:   Оформление проверено модератором 06 Мар 2013 10:18:52
Как cкачать  ·  Как раздать  ·  Правильно оформить  ·  Поднять ратио!  
Загрузка...
Romanzexlive2
Стаж: 8 лет 10 мес.
Сообщений: 333
Ratio: 6,842
Раздал: 11,46 TB
Поблагодарили: 10985
100%
в 3d скоро будет?
ChesteR.86
Стаж: 8 лет 7 мес.
Сообщений: 11
Ratio: 2,186
7.14%
russia.gif
не хочу тебя рстраивать он уже прошел))))))
Remmer1971
Стаж: 7 лет 4 мес.
Сообщений: 317
Ratio: 2,433
100%
russia.gif
ChesteR.86 писал(а): Перейти к сообщению
не хочу тебя рстраивать он уже прошел))))))

Умник... у тебя в рипе 3D спрашивают!
papakyznec
Стаж: 8 лет 3 мес.
Сообщений: 40
Ratio: 4,513
100%
Откуда: Тольятти
russia.gif
А правда охота в 3D.
Romanzexlive2
Стаж: 8 лет 10 мес.
Сообщений: 333
Ratio: 6,842
Раздал: 11,46 TB
Поблагодарили: 10985
100%
papakyznec писал(а): Перейти к сообщению
А правда охота в 3D.

Цирк дю Солей: Сказочный мир в 3D / Cirque du Soleil: Worlds Away 3D (2012) BDRip [Вертикальная анаморфная стереопара]
Logan171094
Стаж: 6 лет
Сообщений: 1
Ratio: 2,308
0%
на раздачу кто нибудь пожалуйста.
veresk62
Стаж: 7 лет 1 мес.
Сообщений: 8
Ratio: 1,667
14.75%
Ты не кошка, ты овца. К 3D это не имеет никакого отношения, кроме названия. Ни назвать правильно, ни отдать толком не смогла...
Топик был перенесен из форума Опера, Балет, Мюзиклы в форум Архив Музыкального Видео

Причина переноса: Отсутствие сидов более трех месяцев.

Исправил релиз - напиши ЛС ALLic, дав ссылку на релиз.
Если нет ответа 24 часа - нажми на кнопку "Обратить внимание модераторов".
Показать сообщения:   
Начать новую тему   Ответить на тему    Торрент-трекер NNM-Club -> Архив торрентов -> Архив Музыкального Видео Часовой пояс: GMT + 3
Страница 1 из 1