Классический форум-трекер
canvas not supported
Нас вместе: 4 077 177

Ганна Главари (1979) DVDRip


 
 
RSS
Начать новую тему   Ответить на тему    Торрент-трекер NNM-Club -> Архив торрентов -> Архив Музыкального Видео
Автор Сообщение
ornellit ®
Стаж: 9 лет 9 мес.
Сообщений: 1752
Ratio: 187,335
Поблагодарили: 96381
100%
ukraine.gif
Ганна Главари (1979) DVDRip
Год выпуска: 1979
Жанр: Музыкальная комедия, оперетта
Выпущено: Лентелефильм, СССР

Режиссер: Евгений Макаров
Актеры: Галина Калинина, Герард Васильев, Игорь Соркин, Борис Смолкин, Константин Иванов-Зорин, Наталья Зейналова, Виктор Кривонос, Вячеслав Линник, Вадим Фесенко, Валентин Чайка, Наталья Воробьева, Марина Ильина

Описание:
По мотивам оперетты Ференца Легара "Веселая вдова".
Банкир Главари был самым богатым человеком страны Монтевердо. После его смерти огромное состояние - 20 миллионов - перешло к его вдове, Ганне Главари. Вдова уезжает в Париж. Правительство Монтевердо, опасаясь, что вдова выйдет замуж во второй раз за иностранца, требует от посла во Франции любой ценой спасти страну от потери состояния Главари. Посол находит выход. Он отдаёт приказ графу Данило жениться на вдове из-за её состояния.
Граф Данило и Ганна Главари знакомятся на приёме в посольстве и с первого взгляда заинтересовались друг другом. На следующий день граф Данило приходит на бал, который даёт у себя Ганна Главари. Граф не желает обманывать вдову и признаётся ей, что получил от посла приказ жениться на ней. В ответ та признаёт, что граф тот человек за которого она могла бы выйти замуж.
Желая проверить своих многочисленных поклоннкив Ганна Главари оглашает условия завещания - она лишается денег в случае замужества. Поклонники тут же теряют интерес к вдове, в отличие от графа Данило, делающего ей предложение. Ганна согласна и объявляет условия завещания целиком - она лишается состояния, так как оно переходит к её новому мужу.

Продолжительность: 01:14:06



Видеокодек: XviD
Битрейт видео: ~2219 Кбит/с
Размер кадра: 704 x 528
Качество видео: DVDRip
Аудиокодек: AC3 2.0
Битрейт аудио: 224 Кбит/с
Общее
Полное имя : Ganna.Glavari.1979.DVDRip.avi
Формат : AVI
Формат/Информация : Audio Video Interleave
Размер файла : 1,27 Гбайт
Продолжительность : 1 ч. 14 м.
Общий поток : 2453 Кбит/сек
Программа кодирования : VirtualDubMod 1.5.10.2 (build 2540/release)
Библиотека кодирования : VirtualDubMod build 2540/release

Видео
Идентификатор : 0
Формат : MPEG-4 Visual
Профиль формата : Simple@L3
Параметр BVOP формата : Нет
Параметр QPel формата : Нет
Параметр GMC формата : Без точки перехода
Параметр матрицы формата : Выборочная
Идентификатор кодека : XVID
Идентификатор кодека/Подсказка : XviD
Продолжительность : 1 ч. 14 м.
Битрейт : 2219 Кбит/сек
Ширина : 704 пикселя
Высота : 528 пикселей
Соотношение сторон : 4:3
Частота кадров : 25,000 кадров/сек
Цветовое пространство : YUV
Субдискретизация насыщенности : 4:2:0
Битовая глубина : 8 бит
Тип развёртки : Прогрессивная
Метод сжатия : С потерями
Бит/(Пиксели*Кадры) : 0.239
Размер потока : 1,15 Гбайт (90%)
Библиотека кодирования : XviD 1.0.3 (UTC 2004-12-20)

Аудио
Идентификатор : 1
Формат : AC-3
Формат/Информация : Audio Coding 3
Расширение режима : CM (complete main)
Параметр Endianness формата : Big
Идентификатор кодека : 2000
Продолжительность : 1 ч. 14 м.
Вид битрейта : Постоянный
Битрейт : 224 Кбит/сек
Каналы : 2 канала
Расположение каналов : Front: L R
Частота : 48,0 КГц
Битовая глубина : 16 бит
Метод сжатия : С потерями
Размер потока : 119 Мбайт (9%)
Выравнивание : Соединение по промежуткам
Продолжительность промежутка : 40 мс. (1,00 видеокадр)
Время предзагрузки промежутка : 512 мс.
Скриншоты:

Время раздачи: С 13:00 до 21:00 (до 5 скачавших)
Приятного просмотра!
[NNM-Club.me]_Ganna.Glavari.1979.DVDRip.avi.torrent
 Торрент: Платиновая раздача  Зарегистрирован
 
Скачать


Примагнититься
 Зарегистрирован:   28 Сен 2013 18:57:41
 Размер:   1,27 GB  (
 Рейтинг:   4,9 (Голосов: 23)
 Поблагодарили:   90
 Проверка:   Оформление проверено модератором 29 Сен 2013 21:43:10
Как cкачать  ·  Как раздать  ·  Правильно оформить  ·  Поднять ратио!  
Топик был перенесен из форума Опера, Балет, Мюзиклы в форум Архив Музыкального Видео

Причина переноса: Отсутствие сидов более трех месяцев.

Исправил релиз - напиши ЛС ALLic, дав ссылку на релиз.
Если нет ответа 24 часа - нажми на кнопку "Обратить внимание модераторов".
Показать сообщения:   
Начать новую тему   Ответить на тему    Торрент-трекер NNM-Club -> Архив торрентов -> Архив Музыкального Видео Часовой пояс: GMT + 3
Страница 1 из 1