Классический форум-трекер
canvas not supported
Нас вместе: 4 083 618
Платим за отзывы

И. Кальман - Марица / E. Kalman - Grafin Mariza (2012) IPTVRip


 
 
RSS
Начать новую тему   Ответить на тему    Торрент-трекер NNM-Club -> Архив торрентов -> Архив Музыкального Видео
Автор Сообщение
Arle-kino ®
Стаж: 6 лет 11 мес.
Сообщений: 154
Ratio: 1116,997
Поблагодарили: 5413
100%
И. Кальман - Марица / E. Kálmán - Gräfin Mariza (2012) IPTVRip
Производство: Россия, Чувашский государственный театр оперы и балета
Год выпуска: 2012
Жанр: Оперетта

Описание:
Чувашский государственный театр оперы и балета впервые обращается к постановке этой оперетты. Петербургский режиссер Сергей Сметанин, специально приглашенный для работы над этим спектаклем, известен как постановщик именно музыкального театра. В основе его концепции лежит идея праздника, танцевальности и веселья. Герои так называемого «легкого» жанра борются за свою любовь по-настоящему, их чувства - это не «оперетточные страсти», это живые и проникновенные эмоциональные откровения. Для современного театра оперетта не является простым жанром, так как либретто, насыщенное юмором столетней давности, неизбежно устаревает. Тем сложней задача режиссера, который осмеливается реанимировать эти шутки, сделать их актуальными и забавными для сегодняшнего интерактивного зрителя. Театр надеется, что спектакль «Марица» обязательно найдет своих благодарных поклонников.

Режиссер-постановщик: Сергей Сметанин
Исполнители: Людмила Яковлева, Сергей Алексеев, Татьяна Тойбахина, Василий Николаев, Алексей Степанов, Татьяна Русановская, Михаил Мокшанов, Александр Чернышов, Надежда Степанова

Продолжительность: 01:56:13
Качество видео: IPTVRip

Дата премьеры: 25.06.2012

Видео: 704x400 (1.76:1), 25 fps, XviD build 50 ~1585 kbps avg, 0.23 bit/pixel
Аудио: AC3 Dolby Digital, 2/0 (L,R) ch, ~192 kbps
General
Complete name : D:\Public\Mariza.2012.WEBRip.avi
Format : AVI
Format/Info : Audio Video Interleave
File size : 1.45 GiB
Duration : 1h 56mn
Overall bit rate : 1 788 Kbps
Writing application : VirtualDubMod 1.5.10.3 | www.virtualdub-fr.org || (build 2550/release)
Writing library : VirtualDubMod build 2550/release

Video
ID : 0
Format : MPEG-4 Visual
Format profile : Advanced Simple@L5
Format settings, BVOP : 2
Format settings, QPel : No
Format settings, GMC : No warppoints
Format settings, Matrix : Default (H.263)
Muxing mode : Packed bitstream
Codec ID : XVID
Codec ID/Hint : XviD
Duration : 1h 56mn
Bit rate : 1 586 Kbps
Width : 704 pixels
Height : 400 pixels
Display aspect ratio : 16:9
Frame rate : 25.000 fps
Color space : YUV
Chroma subsampling : 4:2:0
Bit depth : 8 bits
Scan type : Progressive
Compression mode : Lossy
Bits/(Pixel*Frame) : 0.225
Stream size : 1.29 GiB (89%)
Writing library : XviD 1.2.1 (UTC 2008-12-04)

Audio
ID : 1
Format : AC-3
Format/Info : Audio Coding 3
Mode extension : CM (complete main)
Codec ID : 2000
Duration : 1h 56mn
Bit rate mode : Constant
Bit rate : 192 Kbps
Channel(s) : 2 channels
Channel positions : Front: L R
Sampling rate : 48.0 KHz
Bit depth : 16 bits
Compression mode : Lossy
Stream size : 160 MiB (11%)
Alignment : Split accross interleaves
Interleave, duration : 40 ms (1.00 video frame)
Interleave, preload duration : 500 ms
Скриншоты:
[NNM-Club.me]_Mariza.2012.WEBRip.avi.torrent
 Торрент:   Зарегистрирован
 
Зарегистрируйтесь и скачайте торрент!
14,8 KB

Примагнититься
 Зарегистрирован:   26 Дек 2013 07:23:27
 Размер:   1,45 GB  (
 Рейтинг:   4,7 (Голосов: 12)
 Поблагодарили:   41
 Проверка:   Оформление проверено модератором 26 Дек 2013 09:14:56
Как cкачать  ·  Как раздать  ·  Правильно оформить  ·  Поднять ратио!  
Loading...
Arle-kino ®
Стаж: 6 лет 11 мес.
Сообщений: 154
Ratio: 1116,997
Поблагодарили: 5413
100%
Очень прошу подсказать, что за трио исполняется в третьем акте? Этого номера нет в немецком клавире оперетты.

_________________
Топик был перенесен из форума Опера, Балет, Мюзиклы в форум Архив Музыкального Видео

Причина переноса: Отсутствие сидов более трех месяцев.

Исправил релиз - напиши ЛС ALLic, дав ссылку на релиз.
Если нет ответа 24 часа - нажми на кнопку "Обратить внимание модераторов".
Показать сообщения:   
Начать новую тему   Ответить на тему    Торрент-трекер NNM-Club -> Архив торрентов -> Архив Музыкального Видео Часовой пояс: GMT + 3
Страница 1 из 1