Классический форум-трекер
canvas not supported
Нас вместе: 4 078 858

Рок мьюзикл Bleach / Rock Musical Bleach (2005-2006) DVDRip


 
 
RSS
Начать новую тему   Ответить на тему    Торрент-трекер NNM-Club -> Архив торрентов -> Архив Музыкального Видео
Автор Сообщение
SweM ®
Стаж: 11 лет 11 мес.
Сообщений: 342
Ratio: 7,303
Поблагодарили: 854
100%
russia.gif
Рок мьюзикл Bliach / Rock Musical Bleach (2005-2006) DVDRip
Название: Rock Musical Bleach
Год выпуска: 2005-2006
Жанр: Мьюзикл
Язык: JPA
Перевод: Отсутствует
Язык субтитров: Русские
Вид субтитров: Отдельным файлом
Описание:
Rock Musical BLEACH — рок-опера, основанная на манге и аниме Bleach. Она была создана при участии компаний Studio Pierrot и Nelke Planning. Сценарий адаптирован Наоси Окумурой, режиссёр — Такуя Химарицу. Первые представления были проведены с 17 августа по 28 августа 2005 года в Space Zero Tokyo в Синдзюку. Музыка с нуля написана композитором Сёити Тама и не имеет никого отношения к саундтреку аниме.
К настоящему времени появилось пять мюзиклов с разными сюжетными линиями. В первом «Rock Musical Bleach - Saien» Куросаки Итиго становится синигами, Кутики Рукиа возвращается в Общество душ, за ней отправляются Итиго, Иноуэ Орихиме и Чад. Сюжет оканчивается сценой, где Итиго побеждает Абарая Рэндзи. Во второй версии мюзикла, которая появилась в январе 2006 года, было несколько незначительных изменений: добавлены некоторые песни, а также появляется синигами Кира Идзуру. В то же время вышли и DVD с обеими версиями этих рок-опер.

Второй мюзикл «Rock Musical Bleach - Dark of the Bleeding Moon» повествует о том, как Итиго встречается с 11 отрядом Готэй 13, а Рукиа готовится к казни. Появляются такие персонажи, как Сихоин Ёруйти, Ямада Ханатаро и другие.

В «No Clouds in the Blue Heavens» (англ. Нет облаков на голубых небесах) рассказывается о казни Рукии и раскрывается план Айдзэна. В конце Итиго спасает Рукию, а Айдзэн, Тосэн и Гин покидают Общество душ. Асука Сэкинэ и Масахиро Курануки исполняют роли Сой Фон и Канамэ Тосэна.

«The All» (англ. Все) объединяет все предыдущие мюзиклы в один, посвященный сюжетной арке в Обществе душ.
Rock Musical Bleach: Saien Intro(RusSub) + Live Soundtrack
Rock Musical Bleach: Saien(Orig) + Rock Musical Bleach Backstage(Orig) + Soundtrack
Rock Musical Bleach: The Dark Of The Bleeding Moon(Orig) + Special Disc(Orig) + Live Soundtrack[/b]

Режиссер: Takuya Hiramitsu
Актеры:
Тацуя Осака, Мики Сато, Рэй Ёсии, Ёити Цутия, Кэнго Окути, Кумико Сайто и др.

Video's(все представленные в раздаче):
Продолжительность:
Rock Musical Bleach: Saien Intro - 0:05:24
Rock Musical Bleach: The Dark Of The Bleeding Moon - 02:23:31
Rock Musical BLEACH - DotBM - Special Disc - 0:19:33
Rock Musical Bleach: Saien - 01:51:58
Rock Musical Bleach Backstage - 0:39:42
Видеокодек: XviD
Битрейт видео: 1000Kbps
Размер кадра: 704x400
Качество видео: DVDRip
Аудиокодек: AC3
Битрейт аудио: 128Kbps

OST's:
Продолжительность:
Saien Live Soundtrack - 1:09:53
Аудиокодек: MP3
Битрейт аудио: 320Kbps
The Dark Of The Bleeding Moon Live Soundtrack - 1:04:50
Аудиокодек: MP3
Битрейт аудио: 320Kbps
Rock Musical Bleach - 0:54:14
Аудиокодек: MP3
Битрейт аудио: 128Kbps
Код:

      Полное имя                               : Z:\Концерты\Rock Musical Bleach\Saien\Saien_Intro.avi
Формат                                   : AVI
Формат/Информация                        : Audio Video Interleave
Размер файла                             : 37,1 Мбайт
Продолжительность                        : 5 м. 24 с.
Общий поток                              : 960 Кбит/сек
Библиотека кодирования                   : VirtualDub build 23774/release

Видео
Идентификатор                            : 0
Формат                                   : AVC
Формат/Информация                        : Advanced Video Codec
Профиль формата                          : High@L4.0
Параметр CABAC формата                   : Да
Параметр ReFrames формата                : 1 кадр
Идентификатор кодека                     : H264
Продолжительность                        : 5 м. 24 с.
Битрейт                                  : 822 Кбит/сек
Ширина                                   : 704 пикселя
Высота                                   : 400 пикселей
Соотношение сторон                       : 16:9
Частота кадров                           : 23,976 кадра/сек
Частота кадров в оригинале               : 11,988 кадров/сек
Цветовое пространство                    : YUV
Субдискретизация насыщенности            : 4:2:0
Битовая глубина                          : 8 бит
Тип развёртки                            : Прогрессивная
Бит/(Пиксели*Кадры)                      : 0.122
Размер потока                            : 31,8 Мбайт (86%)
Библиотека кодирования                   : x264 core 17335552

Аудио
Идентификатор                            : 1
Формат                                   : MPEG Audio
Версия формата                           : Version 1
Профиль формата                          : Layer 3
Режим                                    : Joint stereo
Расширение режима                        : MS Stereo
Идентификатор кодека                     : 55
Идентификатор кодека/Подсказка           : MP3
Продолжительность                        : 5 м. 24 с.
Вид битрейта                             : Постоянный
Битрейт                                  : 128 Кбит/сек
Каналы                                   : 2 канала
Частота                                  : 44,1 КГц
Метод сжатия                             : С потерями
Размер потока                            : 4,95 Мбайт (13%)
Выравнивание                             : Разделение по промежуткам
Продолжительность промежутка             : 40  мс. (0,96 видеокадр)
Время предзагрузки промежутка            : 500  мс.

Полное имя                               : Z:\Концерты\Rock Musical Bleach\The Dark Of The Bleeding Moon\Rock Musical BLEACH - The Dark of the Bleeding Moon.avi
Формат                                   : AVI
Формат/Информация                        : Audio Video Interleave
Размер файла                             : 1,14 Гбайт
Продолжительность                        : 2 ч. 23 м.
Общий поток                              : 1140 Кбит/сек

Видео
Идентификатор                            : 0
Формат                                   : MPEG-4 Visual
Профиль формата                          : Simple@L1
Параметр BVOP формата                    : Нет
Параметр QPel формата                    : Нет
Параметр GMC формата                     : Без точки перехода
Параметр матрицы формата                 : Default (H.263)
Идентификатор кодека                     : DX50
Идентификатор кодека/Подсказка           : DivX 5
Продолжительность                        : 2 ч. 23 м.
Продолжительность оригинала              : 2 ч. 23 м.
Битрейт                                  : 1000 Кбит/сек
Ширина                                   : 704 пикселя
Высота                                   : 400 пикселей
Соотношение сторон                       : 16:9
Частота кадров                           : 23,976 кадра/сек
Цветовое пространство                    : YUV
Субдискретизация насыщенности            : 4:2:0
Битовая глубина                          : 8 бит
Тип развёртки                            : Прогрессивная
Метод сжатия                             : С потерями
Бит/(Пиксели*Кадры)                      : 0.148
Размер потока                            : 1,00 Гбайт (88%)
Библиотека кодирования                   : Lavc51.1.0

Аудио
Идентификатор                            : 1
Формат                                   : MPEG Audio
Версия формата                           : Version 1
Профиль формата                          : Layer 3
Режим                                    : Joint stereo
Расширение режима                        : MS Stereo
Идентификатор кодека                     : 55
Идентификатор кодека/Подсказка           : MP3
Продолжительность                        : 2 ч. 23 м.
Вид битрейта                             : Постоянный
Битрейт                                  : 128 Кбит/сек
Каналы                                   : 2 канала
Частота                                  : 44,1 КГц
Метод сжатия                             : С потерями
Задержка видео                           : 26 мс.
Размер потока                            : 131 Мбайт (11%)
Выравнивание                             : Разделение по промежуткам
Продолжительность промежутка             : 26  мс. (0,63 видеокадр)

Полное имя                               : Z:\Концерты\Rock Musical Bleach\The Rock Musical Bleach\Rock Musical Bleach.avi
Формат                                   : AVI
Формат/Информация                        : Audio Video Interleave
Размер файла                             : 913 Мбайт
Продолжительность                        : 1 ч. 51 м.
Общий поток                              : 1140 Кбит/сек

Видео
Идентификатор                            : 0
Формат                                   : MPEG-4 Visual
Профиль формата                          : Simple@L1
Параметр BVOP формата                    : Нет
Параметр QPel формата                    : Нет
Параметр GMC формата                     : Без точки перехода
Параметр матрицы формата                 : Default (H.263)
Идентификатор кодека                     : DX50
Идентификатор кодека/Подсказка           : DivX 5
Продолжительность                        : 1 ч. 51 м.
Продолжительность оригинала              : 1 ч. 51 м.
Битрейт                                  : 1000 Кбит/сек
Ширина                                   : 704 пикселя
Высота                                   : 400 пикселей
Соотношение сторон                       : 16:9
Частота кадров                           : 23,976 кадра/сек
Цветовое пространство                    : YUV
Субдискретизация насыщенности            : 4:2:0
Битовая глубина                          : 8 бит
Тип развёртки                            : Прогрессивная
Метод сжатия                             : С потерями
Бит/(Пиксели*Кадры)                      : 0.148
Размер потока                            : 801 Мбайт (88%)
Библиотека кодирования                   : Lavc50.0.0

Аудио
Идентификатор                            : 1
Формат                                   : MPEG Audio
Версия формата                           : Version 1
Профиль формата                          : Layer 3
Режим                                    : Joint stereo
Расширение режима                        : MS Stereo
Идентификатор кодека                     : 55
Идентификатор кодека/Подсказка           : MP3
Продолжительность                        : 1 ч. 51 м.
Вид битрейта                             : Постоянный
Битрейт                                  : 128 Кбит/сек
Каналы                                   : 2 канала
Частота                                  : 44,1 КГц
Метод сжатия                             : С потерями
Задержка видео                           : 26 мс.
Размер потока                            : 103 Мбайт (11%)
Выравнивание                             : Разделение по промежуткам
Продолжительность промежутка             : 26  мс. (0,63 видеокадр)
           
Скриншоты:
Rock Musical Bleach.torrent
 Торрент: Золотая раздача  Зарегистрирован
 
Зарегистрируйтесь и скачайте торрент!
23 KB

 Зарегистрирован:   04 Июн 2008 15:33:46
 Размер:   2,91 GB  (
 Рейтинг:   4,5 (Голосов: 10)
 Поблагодарили:   21
 Проверка:   Оформление проверено модератором 08 Июн 2008 11:30:04
Как cкачать  ·  Как раздать  ·  Правильно оформить  ·  Поднять ратио!  
Загрузка...
Screamer47
Стаж: 12 лет 8 мес.
Сообщений: 1031
Ratio: 4,18
Поблагодарили: 3931
100%
SweM
Тех. данные для ОСТ ещё бы, пожалуйста.
И для обоих видео тех. данные одинаковы?

И еще один вопрос - здесь ПОЛНЫЙ мьюзикл? То есть весь сюжет в Сообществе раскрыт?
SweM ®
Стаж: 11 лет 11 мес.
Сообщений: 342
Ratio: 7,303
Поблагодарили: 854
100%
russia.gif
Screamer47:
В раздаче представлены только два полных мьюзикла, каждый из которых раскрывает свою историю...
LediMelody
Стаж: 11 лет 1 мес.
Сообщений: 2
Ratio: 28,244
0%
спасибо :)
Minoru L
Стаж: 8 лет 8 мес.
Сообщений: 1
Ratio: 107,502
0%
Пожалуйста, пораздавайте кто-нибудь, а?
darkangel42
Стаж: 8 лет 5 мес.
Сообщений: 1
Ratio: 7,767
0%
Люди добрые! жду раздачи :)

поделитесь файликами!

и мнением по мюзиклу
Ничиполино
Стаж: 8 лет 3 мес.
Сообщений: 1
Ratio: 5,667
0%
belarus.gif
Плиз сомбади раздайте!
Цуруми
Стаж: 9 лет 2 мес.
Сообщений: 9
Ratio: 2,342
Раздал: 10,1 GB
2.08%
Откуда: столько идиотов?Оо
belarus.gif
Ого,так у мюзикла продолжение есть *__*
Однозначно качаю, а то я только Saien смотрела
NUKENIN707
Стаж: 9 лет 4 мес.
Сообщений: 17
Ratio: 1,466
100%
japan.gif
круто
KristinaXX
Стаж: 6 лет 6 мес.
Сообщений: 6
Ratio: 1,16
14.29%
Раздайте, рубята
Топик был перенесен из форума Опера, Балет, Мюзиклы в форум Архив Музыкального Видео

Причина переноса: Отсутствие сидов более трех месяцев.

Исправил релиз - напиши ЛС ALLic, дав ссылку на релиз.
Если нет ответа 24 часа - нажми на кнопку "Обратить внимание модераторов".
Показать сообщения:   
Начать новую тему   Ответить на тему    Торрент-трекер NNM-Club -> Архив торрентов -> Архив Музыкального Видео Часовой пояс: GMT + 3
Страница 1 из 1