Интеллигентный торрент-трекер
canvas not supported
Нас вместе: 4 302 345

Леонид Иович Гайдай / Фильмография (1956 - 1992) DVDRip, SATRip, [H.264]


Страницы:   Пред.  1, 2, 3, 4, 5, 6  След. 
 
RSS
Начать новую тему   Ответить на тему    Торрент-трекер NNM-Club -> Классика кино и Старые фильмы до 90-х -> Отечественная Классика (HD*Rip/LQ, DVDRip, SATRip, VHSRip)
Автор Сообщение
fedulov90 ®
Стаж: 7 лет 7 мес.
Сообщений: 13
Ratio: 7,408
Поблагодарили: 2345
0.43%
russia.gif
Фильмография Леонида Иовича Гайдая (1956-1992)
Название: Леонид Иович Гайдай / Фильмография
Режиссер: Леонид Иович Гайдай
Актеры: Георгий Вицин, Нина Гребешкова, Юрий Никулин, Сергей Филиппов, Наталья Крачковская, Леонид Куравлёв, Михаил Пуговкин, Михаил Кокшенов, Александр Демьяненко, Евгений Моргунов, Наталья Селезнёва, Владимир Этуш, Савелий Крамаров, Алексей Смирнов
Год выпуска: 1956-1992
Продолжительность: 23:15:07
Жанр: Комедия

Описание:
Фильмы Леонида Иовича Гайдая.
Леонид Гайдай родился в 1923 году в городе Свободный. Позже принимал участие в Великой Отечественной войне, в 1942 году первоначально проходил службу в Монголии, затем был направлен на Калининский фронт. 14 декабря 1942 года в боях за деревню Енкино забросал гранатами огневую точку противника и уничтожил 3-х немцев, участвовал в захвате пленных, за что награждён медалью "За боевые заслуги". Получил тяжёлое ранение, подорвавшись на противопехотной мине, после которого его признали непригодным к дальнейшему несению военной службы. В 1947 году окончил театральную студию при Иркутском областном драматическом театре, работал осветителем, актёром.
В 1949 году поступил на режиссёрский факультет ВГИК, который закончил в 1955 году.
В 1956 году вышел первый фильм Леонида Гайдая — «Долгий путь», поставленный по мотивам рассказов В. Г. Короленко. Спустя два года на экраны выходит сатирическая картина «Жених с того света», едва не стоившая режиссёру карьеры.
После редактирования и удаления всех неугодных начальству сцен от фильма осталось чуть больше половины. Несмотря на благосклонность к нему директора «Мосфильма» И. Пырьева, Гайдай был практически отставлен от режиссёрской работы. Лишь после выпуска в 1960 году идеологически «правильного» фильма «Трижды воскресший» (о котором Гайдай сам позже никогда не упоминал) его «простили». Дальше были короткометражные фильмы 1961 года — «Пёс Барбос и необычный кросс» и «Самогонщики». Эти работы приносят известность режиссёру, а также легендарной тройке Трус — Балбес — Бывалый. На следующий год Гайдай экранизирует три новеллы О. Генри, в рамках своего фильма «Деловые люди». Сделав перерыв в три года, Леонид выпускает три фильма, каждый из которых становится всенародно любимым произведением советской кинематографии. Кинокомедия «Операция «Ы» и другие приключения Шурика», состоящая из трёх киноновелл, занимает первое место в прокате 1965 года. Как и следующие два фильма Гайдая — «Кавказская пленница, или Новые приключения Шурика» (1966 года) и «Бриллиантовая рука» (1968 года) которые повторяют это достижение.
Детективная комедия Леонида Гайдая — «Бриллиантовая рука» в 1995 году была признана лучшей отечественной комедией за 100 лет, победив в опросе телезрителей.
В 1970-х занимался экранизациями классических произведений (И. Ильф и Е. Петров, М. Булгаков, М. Зощенко, Н. Гоголь). В 1981—1988 гг. Гайдай снимал сюжеты для киножурнала «Фитиль». Также на экраны вышло несколько новых картин Гайдая. Несмотря на высокое качество этих фильмов, для зрителей они были менее заметны, чем раннее творчество режиссёра.
Последней работой Леонида Гайдая стал фильм «На Дерибасовской хорошая погода, или На Брайтон-Бич опять идут дожди» выпущенный в 1992 году.

Фильмография
Название: Долгий путь
Год выпуска: 1956
Сценарий: Борис Бродский, Ромм Михаил
Оператор: Сергей Полуянов
Композитор: Бирюков, Юрий Сергеевич
Актеры: Сергей Яковлев, Кюнна Игнатова, Леонид Губанов, Владимир Белокуров, Никифор Колофидин, Александр Антонов, Георгий Бударов, Владимир Покровский, Иван Рыжов, Аполлон Ячницкий, Екатерина Мазурова, Евгений Кудряшёв
Жанр: Драма

Описание фильма:
Станционный смотритель Кругликов был сослан в глухой сибирский посёлок много лет назад за то, что стрелял в своего начальника, генерала, потребовавшего, чтобы он поехал вместе с ним в качестве свата к любимой девушке Кругликова — Рае. На станцию привозят политическую ссыльную. Ею оказывается Рая. Несколько минут были бывшие жених и невеста рядом, а затем её снова повезли по этапу.

Продолжительность: 01:15:57
Рейтинг на:
Качество видео: SATRip
Видеокодек: Xvid
Размер кадра: 672x448
Битрейт видео: ~1 800 Kbps
Аудиокодек: MP3, 2 channels
Битрейт аудио: 128 Kbps
Format : AVI
Format/Info : Audio Video Interleave
File size : 1.03 GiB
Duration : 1h 15mn
Overall bit rate : 1 937 Kbps
Director : SATrip by Animat
Video #0
Format : MPEG-4 Visual
Format profile : Advanced Simple@L5
Format settings, BVOP : 2
Format settings, QPel : No
Format settings, GMC : No warppoints
Format settings, Matrix : Default (MPEG)
Muxing mode : Packed bitstream
Codec ID : XVID
Codec ID/Hint : XviD
Duration : 1h 15mn
Bit rate : 1 800 Kbps
Width : 672 pixels
Height : 448 pixels
Display aspect ratio : 3:2
Frame rate : 25.000 fps
Color space : YUV
Chroma subsampling : 4:2:0
Bit depth : 8 bits
Scan type : Progressive
Compression mode : Lossy
Bits/(Pixel*Frame) : 0.239
Stream size : 977 MiB (93%)
Writing library : XviD 1.1.2 (UTC 2006-11-01)
Audio #1
Format : MPEG Audio
Format version : Version 1
Format profile : Layer 3
Mode : Joint stereo
Mode extension : MS Stereo
Codec ID : 55
Codec ID/Hint : MP3
Duration : 1h 15mn
Bit rate mode : Constant
Bit rate : 128 Kbps
Channel(s) : 2 channels
Sampling rate : 48.0 KHz
Compression mode : Lossy
Stream size : 69.5 MiB (7%)
Alignment : Aligned on interleaves
Interleave, duration : 40 ms (1.00 video frame)
Interleave, preload duration : 504 ms
Скриншоты:

Доп. информация: Свой первый фильм Гайдай поставил по сибирским рассказам В. Г. Короленко, таким образом отдав дань своему дальневосточному происхождению. Несмотря на то, что это была не комедия, Михаил Ромм разглядел в молодом режиссёре талант комедиографа и посоветовал ему работать в этом направлении.
Название: Жених с того света
Год выпуска: 1958
Сценарий: Владимир Духовичный, Морис Слободской
Оператор: Леонид Крайненков
Композитор: Арно Бабаджанян
Актеры: Ростислав Плятт, Георгий Вицин, Вера Алтайская, Рина Зеленая, Александра Данилова, Лидия Драновская, В. Фролова, Зоя Федорова, Татьяна Гурецкая, Мария Кравчуновская, В. Новосельский, Клара Румянова, Римма Шорохова, А. Строев, М. Тарасов, Валентина Телегина, Владимир Владиславский, Анастасия Зуева
Жанр: Комедия

Описание фильма:
Глава учреждения КУКУ (Кустовое Управление Курортными Учреждениями) виртуоз-бюрократ Петухов попадает в щекотливое положение: вернувшись после трехдневного отсутствия от невесты, он обнаруживает, что его похоронили, причем совершенно на законных основаниях.
Продолжительность: 00:47:50
Рейтинг на:
Качество видео: SATRip
Видеокодек: Xvid
Размер кадра: 720x544
Битрейт видео: ~3 889 Kbps
Аудиокодек: AC-3, 2 channels
Битрейт аудио: 192 Kbps
Format : AVI
Format/Info : Audio Video Interleave
File size : 1.37 GiB
Duration : 47mn 50s
Overall bit rate : 4 091 Kbps
Video #0
Format : MPEG-4 Visual
Format profile : Advanced Simple@L5
Format settings, BVOP : 1
Format settings, QPel : No
Format settings, GMC : No warppoints
Format settings, Matrix : Default (MPEG)
Codec ID : XVID
Codec ID/Hint : XviD
Duration : 47mn 50s
Bit rate : 3 889 Kbps
Width : 720 pixels
Height : 544 pixels
Display aspect ratio : 4:3
Frame rate : 25.000 fps
Color space : YUV
Chroma subsampling : 4:2:0
Bit depth : 8 bits
Scan type : Progressive
Compression mode : Lossy
Bits/(Pixel*Frame) : 0.397
Stream size : 1.30 GiB (95%)
Writing library : XviD 1.2.1 (UTC 2008-12-04)
Audio #1
Format : AC-3
Format/Info : Audio Coding 3
Mode extension : CM (complete main)
Codec ID : 2000
Duration : 47mn 49s
Bit rate mode : Constant
Bit rate : 192 Kbps
Channel(s) : 2 channels
Channel positions : Front: L R
Sampling rate : 48.0 KHz
Bit depth : 16 bits
Compression mode : Lossy
Stream size : 65.7 MiB (5%)
Alignment : Split accross interleaves
Interleave, duration : 40 ms (1.00 video frame)
Interleave, preload duration : 500 ms
Скриншоты:

Доп. информация: Комедийный фильм режиссёра Леонида Гайдая, снятый в 1958 году. Это единственный фильм режиссёра, который подвергся существенной цензуре: из полнометражного фильма, иронически обыгрывающего советскую бюрократию и крючкотворство, под давлением министра культуры СССР Николая Михайлова было изъято много материала, что превратило его в короткометражный.
Название: Пёс Барбос и необычный кросс
Год выпуска: 1961
Сценарий: Леонид Гайдай
Оператор: Константин Бровин
Композитор: Никита Богословский
Актеры: Евгений Моргунов, Юрий Никулин, Георгий Вицин
Жанр: Комедия

Описание фильма:
Что есть главное средство для поддержания мужской дружбы и просто для увлекательного времяпрепровождения? Правильно, это рыбалка. Трус, Балбес и Бывалый решили испытать эту радость жизни на себе, но на свою беду взяли они с собой пса Барбоса...
Продолжительность: 00:10:04
Рейтинг на:
Качество видео: DVDRip
Видеокодек: DX50
Размер кадра: 720x544
Битрейт видео: ~1 629 Kbps
Аудиокодек: AC-3, 6 channels
Битрейт аудио: 448 Kbps
Format : AVI
Format/Info : Audio Video Interleave
File size : 150 MiB
Duration : 10mn 4s
Overall bit rate : 2 084 Kbps
Video #0
Format : MPEG-4 Visual
Format settings, BVOP : 1
Format settings, QPel : No
Format settings, GMC : No warppoints
Format settings, Matrix : Default (H.263)
Muxing mode : Packed bitstream
Codec ID : DX50
Codec ID/Hint : DivX 5
Duration : 10mn 4s
Bit rate : 1 629 Kbps
Width : 720 pixels
Height : 544 pixels
Display aspect ratio : 4:3
Frame rate : 25.000 fps
Color space : YUV
Chroma subsampling : 4:2:0
Bit depth : 8 bits
Scan type : Progressive
Compression mode : Lossy
Bits/(Pixel*Frame) : 0.166
Stream size : 117 MiB (78%)
Writing library : DivX 6.4.0 (UTC 2006-10-03)
Audio #1
Format : AC-3
Format/Info : Audio Coding 3
Mode extension : CM (complete main)
Codec ID : 2000
Duration : 10mn 4s
Bit rate mode : Constant
Bit rate : 448 Kbps
Channel(s) : 6 channels
Channel positions : Front: L C R, Side: L R, LFE
Sampling rate : 48.0 KHz
Bit depth : 16 bits
Compression mode : Lossy
Stream size : 32.3 MiB (21%)
Alignment : Split accross interleaves
Interleave, duration : 96 ms (2.40 video frames)
Interleave, preload duration : 96 ms
Language : English
Скриншоты:

Доп. информация: «Пёс Барбос и необычный кросс» — короткометражная комедия по фельетону Степана Олейника, созданная на студии «Мосфильм» в 1961 году. Входит в альманах «Совершенно серьёзно». Это первое произведение о трио жуликов: Трусе, Балбесе и Бывалом. Фильм номинировался на Золотую пальмовую ветвь на Каннском кинофестивале в 1961 году за лучший короткометражный фильм.
Существует легенда, согласно которой, музыкальное озвучание делалось для уже готового, смонтированного, фильма, и поэтому Богословский лично дирижировал оркестром при записи музыкальной дорожки во время прокручивания на экране ленты.
Фильм снимался в окрестностях поселка Снегири в Истринском районе Подмосковья, на живописном берегу реки Истры, ныне застроенном коттеджными поселками. Сцена со взрывом динамита и горящим деревом — рядом с дачей Ивана Козловского, расположенной в соседнем дачном товариществе «Мастера искусств» в деревне Жевнево.
Название: Самогонщики
Год выпуска: 1961
Сценарий: Константин Бровин, Леонид Гайдай
Оператор: Константин Бровин
Композитор: Никита Богословский
Актеры: Евгений Моргунов, Юрий Никулин, Георгий Вицин, Владимир Пицек
Жанр: Комедия

Описание фильма:
Трус, Балбес и Бывалый решают поставить на широкую ногу изготовление самогона — и снова фиаско…
Продолжительность: 00:18:12
Рейтинг на:
Качество видео: DVDRip
Видеокодек: DX50
Размер кадра: 720x544
Битрейт видео: ~1 620 Kbps
Аудиокодек: AC-3, 6 channels
Битрейт аудио: 448 Kbps
Format : AVI
Format/Info : Audio Video Interleave
File size : 270 MiB
Duration : 18mn 12s
Overall bit rate : 2 075 Kbps
Video #0
ID : 0
Format : MPEG-4 Visual
Format settings, BVOP : 1
Format settings, QPel : No
Format settings, GMC : No warppoints
Format settings, Matrix : Default (H.263)
Muxing mode : Packed bitstream
Codec ID : DX50
Codec ID/Hint : DivX 5
Duration : 18mn 12s
Bit rate : 1 620 Kbps
Width : 720 pixels
Height : 544 pixels
Display aspect ratio : 4:3
Frame rate : 25.000 fps
Color space : YUV
Chroma subsampling : 4:2:0
Bit depth : 8 bits
Scan type : Progressive
Compression mode : Lossy
Bits/(Pixel*Frame) : 0.165
Stream size : 211 MiB (78%)
Writing library : DivX 6.4.0 (UTC 2006-10-03)
Audio #1
ID : 1
Format : AC-3
Format/Info : Audio Coding 3
Mode extension : CM (complete main)
Codec ID : 2000
Duration : 18mn 11s
Bit rate mode : Constant
Bit rate : 448 Kbps
Channel(s) : 6 channels
Channel positions : Front: L C R, Side: L R, LFE
Sampling rate : 48.0 KHz
Bit depth : 16 bits
Compression mode : Lossy
Stream size : 58.3 MiB (22%)
Alignment : Split accross interleaves
Interleave, duration : 96 ms (2.40 video frames)
Interleave, preload duration : 96 ms
Language : English
Скриншоты:

Доп. информация: По словам авторов песня самогонщиков, которую мы слышим в фильме - это второй вариант, коренным образом переработанный. Песню самогонщиков сперва сочинил Юрий Никулин. "Первый дубль" получился настолько удачным, что руководство забеспокоилось: "Ребята, что вы делаете? Завтра вашу песню будет петь вся страна!" Действительно, все сначала писалось на мелодию народной песни "Семеновна", что, (после демонстрации в кинотеатрах страны)несомненно вылилось бы в конце концов в повальное застольное, истинно всенародное пение. А текст: "Не футболисты мы, не велогонщики, и не артисты мы, а самогонщики! А мы пить будем, а мы гнать будем, и культуру производства повышать будем!" - в устах нетрезвых граждан будет иметь явный издевательский оттенок. Пришлось "переделывать хуже" - поэт В.Лифшиц написал стихи про "хитроумный аппарат". Второй вариант мелодии уже не был настолько удобен для группового пения, плюс теперь в песне присутствовала политкорректная, но несомненно удачная находка - куплет труса, про тюремное заключение за самогоноварение. Первоначальный-же вариант остался в архивах киностудии и зрителю абсолютно неизвестен. Похоже, единственное появление этой песни в эфире произошло в 2008 году в программе НТВ "Великая тайна водки" из цикла "Русские сенсации". Под аккомпанемент рояля знакомые голоса исполняют один куплет, правда и тот без окончания. "И помогают нам всегда..."-хором произносят актеры, далее рояль завершает музыкальную фразу, и что-же именно помогает нашим любимым героям - остается неизвестным.
Название: Деловые люди
Год выпуска: 1963
Сценарий: Леонид Гайдай, О. Генри
Оператор: Константин Бровин
Композитор: Георгий Фиртич
Актеры: Ростислав Плятт, Георгий Вицин, Юрий Никулин, Алексей Смирнов, Сергей Тихонов, Александр Шворин, Георгий Милляр, Виктор Громов, Владимир Пицек, Виктор Уральский
Жанр: Комедия

Описание фильма:
Фильм состоит из трёх не связанных между собой по сюжету новелл, основанных на рассказах О. Генри. Первая новелла — трагическая, остальные две — комические:
«Дороги, которые мы выбираем» (англ. The Roads we Take)
«Родственные души» (англ. en:Makes The Whole World Kin )
«Вождь краснокожих» (англ. The Ransom of Red Chief)
Название фильма заимствовано у сборника рассказов О. Генри «Деловые люди» («Strictly Business»), 1910 год. При этом ни одна из экранизированных новелл не входит в этот сборник: «Дороги, которые мы выбираем» и «Вождь краснокожих» вышли в сборнике «Коловращение» (1910), а «Родственные души» — в сборнике «Шестерки-семерки» (1911).
Продолжительность: 01:19:51
Субтитры: Русские (полные)
Вид субтитров: Вшитые отключаемые
Рейтинг на:
Качество видео: DVDRip
Видеокодек: AVC
Размер кадра: 720x576
Битрейт видео: ~1 510 Kbps
Аудиокодек: AC-3, 6 channels
Битрейт аудио: 448 Kbps
Format : Matroska
Format version : Version 2
File size : 1.09 GiB
Duration : 1h 19mn
Overall bit rate : 1 960 Kbps
Movie name : Деловые люди (1962) ® RZ-7
Video #1
Format : AVC
Format/Info : Advanced Video Codec
Format profile : High@L4.0
Format settings, CABAC : Yes
Format settings, ReFrames : 16 frames
Codec ID : V_MPEG4/ISO/AVC
Duration : 1h 19mn
Bit rate : 1 510 Kbps
Width : 720 pixels
Height : 576 pixels
Display aspect ratio : 4:3
Frame rate : 25.000 fps
Standard : PAL
Color space : YUV
Chroma subsampling : 4:2:0
Bit depth : 8 bits
Scan type : Progressive
Bits/(Pixel*Frame) : 0.146
Stream size : 841 MiB (75%)
Language : Russian
Audio #2
ID : 2
Format : AC-3
Format/Info : Audio Coding 3
Mode extension : CM (complete main)
Codec ID : A_AC3
Duration : 1h 19mn
Bit rate mode : Constant
Bit rate : 448 Kbps
Channel(s) : 6 channels
Channel positions : Front: L C R, Side: L R, LFE
Sampling rate : 48.0 KHz
Bit depth : 16 bits
Compression mode : Lossy
Delay relative to video : 3s 124ms
Stream size : 256 MiB (23%)
Title : 5.1 AC3 448kbps (Оригинал)
Language : Russian
Text #3
ID : 3
Format : UTF-8
Codec ID : S_TEXT/UTF8
Codec ID/Info : UTF-8 Plain Text
Title : SRT English
Language : English
Text #4
ID : 4
Format : UTF-8
Codec ID : S_TEXT/UTF8
Codec ID/Info : UTF-8 Plain Text
Title : SRT Русские
Language : Russian
Скриншоты:

Доп. информация: Натурой для новеллы «Дороги, которые мы выбираем» послужила Белая Скала в Белогорском районе Крымской области.
В начальных титрах фильма псевдоним О. Генри показан с распространённой ошибкой: «О’Генри».
Название: Операция «Ы» и другие приключения Шурика
Год выпуска: 1965
Сценарий: Морис Слободской, Яков Костюковский, Леонид Гайдай
Оператор: Константин Бровин
Композитор: Александр Зацепин
Актеры: Михаил Пуговкин, Владимир Басов, Наталия Селезнева, Виктор Павлов, Юрий Никулин, Евгений Моргунов, Георгий Вицин, Владимир Владиславский, В. Раутберг, Валентина Березуцкая, Александр Демьяненко, Алексей Смирнов, Зоя Федорова
Жанр: Комедия

Описание фильма:
Фильм состоит из трех новелл, объединенных фигурой главного героя Шурика, попадающего в самые невероятные ситуации. В «Напарнике» Шурик сражается с хулиганом Верзилой; в «Наваждении» весьма оригинальным способом готовится к экзамену; в «Операции «Ы» предотвращает «ограбление века», на которое идет знаменитая тройка — Балбес, Трус и Бывалый.
Продолжительность: 01:30:42
Рейтинг на:
Качество видео: DVDRip
Видеокодек: DX50
Размер кадра: 720x544
Битрейт видео: ~1 704 Kbps
Аудиокодек: AC-3, 6 channels
Битрейт аудио: 448 Kbps
Format : AVI
Format/Info : Audio Video Interleave
File size : 1.37 GiB
Duration : 1h 30mn
Overall bit rate : 2 159 Kbps
Video #0
Format : MPEG-4 Visual
Format settings, BVOP : 1
Format settings, QPel : No
Format settings, GMC : No warppoints
Format settings, Matrix : Default (H.263)
Muxing mode : Packed bitstream
Codec ID : DX50
Codec ID/Hint : DivX 5
Duration : 1h 30mn
Bit rate : 1 704 Kbps
Width : 720 pixels
Height : 544 pixels
Display aspect ratio : 4:3
Frame rate : 25.000 fps
Color space : YUV
Chroma subsampling : 4:2:0
Bit depth : 8 bits
Scan type : Progressive
Compression mode : Lossy
Bits/(Pixel*Frame) : 0.174
Stream size : 1.08 GiB (79%)
Writing library : DivX 6.8.0 (UTC 2007-12-04)
Audio #1
Format : AC-3
Format/Info : Audio Coding 3
Mode extension : CM (complete main)
Codec ID : 2000
Duration : 1h 30mn
Bit rate mode : Constant
Bit rate : 448 Kbps
Channel(s) : 6 channels
Channel positions : Front: L C R, Side: L R, LFE
Sampling rate : 48.0 KHz
Bit depth : 16 bits
Compression mode : Lossy
Delay relative to video : 240ms
Stream size : 291 MiB (21%)
Alignment : Split accross interleaves
Interleave, duration : 96 ms (2.40 video frames)
Interleave, preload duration : 96 ms
Language : Russian
Скриншоты:

Доп. информация: Фильм снимался в Ленинграде, в павильонах киностудии Мосфильм, в районе Свиблова и в районе МГУ (Москва), а также в Одессе.
Многие гэги были придуманы во время съёмок самими актёрами. Так, Юрий Никулин придумал сцену, где Шурик «ранит» его героя, Балбеса, рапирой и из его груди хлещет «кровь» — красное вино. Сцена с щёлкающим зубами скелетом была импровизацией Никулина.
Название: Кавказская пленница, или Новые приключения Шурика
Год выпуска: 1966
Сценарий: Морис Слободской, Яков Костюковский, Леонид Гайдай
Оператор: Константин Бровин
Композитор: Александр Зацепин
Актеры: Александр Демьяненко, Руслан Ахметов, Юрий Никулин, Георгий Вицин, Евгений Моргунов, Наталья Варлей, Владимир Этуш, Фрунзик Мкртчян, Нина Гребешкова
Жанр: Комедия

Описание фильма:
Отправившись в одну из горных республик собирать фольклор, герой фильма Шурик влюбляется в симпатичную девушку — «спортсменку, отличницу, и просто красавицу». Но ее неожиданно похищают, чтобы насильно выдать замуж.
Наивный Шурик не сразу смог сообразить, что творится у него под носом, — однако затем отважно ринулся освобождать «кавказскую пленницу»…
Продолжительность: 01:19:53
Рейтинг на:
Качество видео: DVDRip
Видеокодек: Xvid
Размер кадра: 704x512
Битрейт видео: ~2 218 Kbps
Аудиокодек: AC-3, 6 channels
Битрейт аудио: 384 Kbps
Format : AVI
Format/Info : Audio Video Interleave
File size : 1.46 GiB
Duration : 1h 19mn
Overall bit rate : 2 611 Kbps
Movie name : Кавказская пленница, или новые приключения Шурика / Kavkazskaya plennitsa, ili Novye priklyucheniya Shurika (1967)
Video #0
ID : 0
Format : MPEG-4 Visual
Format profile : Advanced Simple@L5
Format settings, BVOP : 1
Format settings, QPel : No
Format settings, GMC : No warppoints
Format settings, Matrix : Custom
Codec ID : XVID
Codec ID/Hint : XviD
Duration : 1h 19mn
Bit rate : 2 218 Kbps
Width : 704 pixels
Height : 512 pixels
Display aspect ratio : 1.375
Frame rate : 23.976 fps
Color space : YUV
Chroma subsampling : 4:2:0
Bit depth : 8 bits
Scan type : Progressive
Compression mode : Lossy
Bits/(Pixel*Frame) : 0.257
Stream size : 1.24 GiB (85%)
Writing library : XviD 63
Audio #1
ID : 1
Format : AC-3
Format/Info : Audio Coding 3
Mode extension : CM (complete main)
Codec ID : 2000
Duration : 1h 19mn
Bit rate mode : Constant
Bit rate : 384 Kbps
Channel(s) : 6 channels
Channel positions : Front: L C R, Side: L R, LFE
Sampling rate : 48.0 KHz
Bit depth : 16 bits
Compression mode : Lossy
Stream size : 219 MiB (15%)
Alignment : Split accross interleaves
Interleave, duration : 42 ms (1.00 video frame)
Interleave, preload duration : 500 ms
Скриншоты:

Доп. информация: Фамилия Саахов для героя Владимира Этуша была изменена почти перед съёмками. В сценарии героя зовут Охохов, что косвенно подчёркивает фраза дяди Джабраила в сцене «разговора» с Ниной («Или выйдешь отсюда женой товарища Саах… Ах, какого жениха!» (в оригинале «Или выйдешь женой товарища Ох… Ох, какого жениха!»)). Однако в министерстве культуры оказался высокий номенклатурный работник с фамилией Охохов, потребовавший немедленно поменять имя отрицательного героя. Но и фамилию Саахов также потребовали изменить, и по той же самой причине — на этот раз в партийной организации «Мосфильма» нашёлся большой чиновник с фамилией Сааков. Юрий Никулин случайно рассказал об этом министру культуры Екатерине Алексеевне Фурцевой, на что та рассердилась: «А если бы его назвали Ивановым? У нас в Минкульте — 180 Ивановых! И что теперь? Дурака нельзя называть Ивановым? Оставить как есть!»
Реплику дяди Джабраила «Между прочим, в соседнем районе жених украл члена партии!» хотели убрать, но не убрали, а вложили в уста Юрия Никулина.
Первоначально слова «Песенки о медведях» были такие:
Где-то на белой льдине,
Там, где всегда мороз,
Чешут медведи спины
О земную ось.
Однако по настоянию худсовета («у них что, блохи?») слова заменили на "Где-то на белом свете,… Трутся спиной медведи… ".
В песне «Если б я был султан» первоначально был ещё один куплет («Если все три жены мне нальют по сто (вариант — Разрешит мне жена каждая по сто), итого триста грамм — это кое-что…», но в фильм он не вошёл. Полная версия эпизода песни с этим куплетом была показана по телевидению в «Голубом огоньке» 1966 года, часть «Сказки русского леса».
Автомобиль, на котором ездила троица Трус, Балбес и Бывалый — «Adler Trumpf Junior», он выпускался в Германии с 1934 по 1941 год, имел привод на передние колёса и двигатель объёмом 1 л мощностью 25 л. с. Машина, которая снималась в фильме, была собственностью Юрия Никулина. К моменту съёмок автомобиль был переделан: передний привод был заменён на задний, а вместо родного мотора был установлен двигатель от «Москвича». Сейчас этот кабриолет с «волговским» оленем на капоте увековечен в бронзовом памятнике Юрию Никулину, который стоит перед московским цирком на Цветном бульваре. Сам автомобиль также сохранён, и находится в запасниках музея Ломакова. Идёт процесс его реставрации.
Автомобиль, на котором ездил шофёр Эдик, является довоенным шасси с кустарно исполненным кузовом, напоминающим по внешнему виду санитарный автомобиль ГАЗ-55, начало производства которого приходится еще на довоенный период (1938—1945 годы выпуска). В период, когда снимался фильм, такие автомобили встретить на улицах советских городов было уже практически невозможно.
Автомобиль, на котором в конце фильма уезжает героиня Натальи Варлей - очень редкий, экспериментальный микроавтобус "Старт", уникальный своим стелкопластиковым кузовом. Всего было выпущено порядка 100 штук, до нашего времени в целом состоянии дошли единицы - во многом это обусловлено именно специфичным материалом кузова.
Несмотря на название фильма и созданные в фильме образы, сам фильм снимался не на Кавказе, а в Крыму, основное место съемок: центр г. Алушта и долина Привидений у подножия Демерджи. Кроме этого, в фильме встречаются эпизоды, снятые в г. Симферополь (психбольница), на вершине Ай-Петри (остановленный Шуриком автомобиль с Ниной) и на Кавказе, в Адлерском районе Сочи на реке Мзымта (горная река, в которой Нина спасает Шурика и пропасть из окна комнаты Нины)
В этой статье не хватает ссылок на источники информации.
Информация должна быть проверяема, иначе она может быть поставлена под сомнение и удалена.
Вы можете отредактировать эту статью, добавив ссылки на авторитетные источники.
Эта отметка стоит на статье с 22 июля 2011.
Орешина, с которой Никулин бросался недозрелыми грецкими орехами ("Орех Никулина") и большой прямоугольный камень из другого к/ф Гайдая "Спортлото-82", который обходит Сан Саныч, находятся всего на расстоянии нескольких метров друг от друга.
Название: Бриллиантовая рука
Год выпуска: 1968
Сценарий: Морис Слободской, Яков Костюковский, Леонид Гайдай
Оператор: Игорь Черных
Композитор: Александр Зацепин
Актеры: Юрий Никулин, Андрей Миронов, Нина Гребешкова, Нонна Мордюкова, Светлана Светличная, Владимир Гуляев, Станислав Чекан, Николай Романов, Леонид Каневский, Анатолий Папанов
Жанр: Комедия

Описание фильма:
Кинороман из жизни контрабандистов с прологом и эпилогом. В южном городке орудует шайка «валютчиков», возглавляемая Шефом и его помощником Графом. Скромный советский служащий и примерный семьянин Семен Семеныч Горбунков отправляется в зарубежный круиз на теплоходе, на котором также плывет Граф, который должен забрать бриллианты в одном из восточных городов и провезти их в загипсованной руке. Но в силу недоразумения вместо жулика на условленном месте падает ничего не подозревающий Семен Семенович и драгоценный гипс накладывают ему. Вот тут-то все и начинается…
Продолжительность: 01:38:20
Рейтинг на:
Качество видео: DVDRip
Видеокодек: Xvid
Размер кадра: 720x304
Битрейт видео: ~1 660 Kbps
Аудиокодек: AC-3, 6 channels
Битрейт аудио: 448 Kbps
Format : AVI
Format/Info : Audio Video Interleave
File size : 1.45 GiB
Duration : 1h 38mn
Overall bit rate : 2 118 Kbps
Movie name : Brilliantovaya Ruka (1968)
Director : Vaippp
Genre : Comedy/Crime
Original source form/Name : Movie
Copyright : HQ-ViDEO
Comment : BDRip
Video #0
ID : 0
Format : MPEG-4 Visual
Format profile : Advanced Simple@L5
Format settings, BVOP : 2
Format settings, QPel : No
Format settings, GMC : No warppoints
Format settings, Matrix : Custom
Codec ID : XVID
Codec ID/Hint : XviD
Duration : 1h 38mn
Bit rate : 1 660 Kbps
Width : 720 pixels
Height : 304 pixels
Display aspect ratio : 2.35:1
Frame rate : 23.976 fps
Color space : YUV
Chroma subsampling : 4:2:0
Bit depth : 8 bits
Scan type : Progressive
Compression mode : Lossy
Bits/(Pixel*Frame) : 0.316
Stream size : 1.14 GiB (78%)
Writing library : XviD 64
Audio #1
ID : 1
Format : AC-3
Format/Info : Audio Coding 3
Mode extension : CM (complete main)
Codec ID : 2000
Duration : 1h 38mn
Bit rate mode : Constant
Bit rate : 448 Kbps
Channel(s) : 6 channels
Channel positions : Front: L C R, Side: L R, LFE
Sampling rate : 48.0 KHz
Bit depth : 16 bits
Compression mode : Lossy
Stream size : 315 MiB (21%)
Alignment : Split accross interleaves
Interleave, duration : 42 ms (1.00 video frame)
Interleave, preload duration : 500 ms
Скриншоты:

Доп. информация: Основа сюжета (контрабандисты и борьба с ними) расходилась с реальностью — согласно советскому законодательству, в страну можно было беспрепятственно провезти до 10 кг золота или золотых изделий, но любые операции физических лиц с валютными ценностями, в том числе золотом и драгоценными камнями, относились к уголовным преступлениям. Начиная с мая 1959 года, дела о контрабанде и нарушении валютных операций находились в ведении не милиции, а КГБ СССР. В июле 1961 года был принят указ, предусматривающий за некоторые виды т. н. «валютных преступлений» в том числе смертную казнь.
В качестве теплохода «Михаил Светлов» были сняты два судна: «Победа» и «Россия». В сцене посадки на круиз в порту показан теплоход «Россия». Сцену, где Андрей Миронов поёт песню про Остров невезения, снимали на палубе теплохода «Победа».
В сцене, когда Семён Семёнович Горбунков наступает на арбузную корку и падает, вместо Юрия Никулина снимался Леонид Каневский. Это было связано с тем, что Никулин никак не мог попасть ногой в арбузную корку, падение выглядело неестественно. Каневский торопился, опаздывая на самолёт, но сумел выполнить всё, что нужно, с первого дубля. Дальше возникла проблема «совмещения», поскольку сцена была снята крупным планом. Подмена так и осталась видна: когда показывают арбузную корку, видно коричневые туфли, а Никулин был обут в туфли чёрного цвета.
«Иностранная речь», на которой говорят герои Каневского и Шпигеля — тарабарщина, придуманная Каневским. Слово «мордюк», несколько раз звучащее в ней, было привнесено Гайдаем, после того, как он на съемках поругался с Мордюковой. А фраза «березина команит» была придумана Каневским по девичьей фамилии его жены Анны Березиной.
Крылатая фраза «А у нас управдом — друг человека!» появилась на этапе озвучивания фильма. Во время съёмок Мордюкова вместо «управдом» говорит «человек» (это отчётливо видно по губам).
Роль Анны Сергеевны, сыгранной С. Светличной, была впоследствии переозвучена по требованию Гайдая Зоей Толбузиной. Своим голосом в фильме Светличная кричит единственную фразу «Не виноватая я, он сам пришел!»
Во время съёмок сцены рыбалки после очередного неудачного (по вине оператора И. Черных) дубля замёрзший Анатолий Папанов (температура воды была около 8 °C), высунувшись из воды, рявкнул на оператора фильма: «Идиот, тьфу!» Это было снято случайно, но режиссёр Леонид Гайдай вставил эпизод в картину.
Автомобильный номер на такси — «2870 ОГО» — является бутафорским и сделан с юмором: серия ОГ принадлежала Оренбургской области и дошла только до ОГЕ, а 2870 — цена бутылки водки до денежной реформы 1961 года (28,7 руб.).
Автомобильную мойку, где Горбункова зажали Геша и Лёлик, специально построили для съёмок фильма в центре Сочи. После съёмок её перевели в обычную эксплуатацию.
В фильме мелькает афиша с анонсом фильма Эльдара Рязанова «Зигзаг удачи».
Машиной шефа является «Москвич-408», бывший на момент съемок новой моделью.
Пистолет, который лейтенант милиции Володя передаёт Горбункову, — итальянская «Беретта» модели 1934 года.
У Геши и капитана корабля «Михаил Светлов» одни и те же часы. Это золотой Longines Андрея Миронова.
Семён Семёнович осматривает в комиссионном магазине бронзового коня, этого же коня в фильме «Служебный роман» Рязанова переносит главный герой Новосельцев, тот же конь присутствует в фильме «Семнадцать мгновений весны» на вилле Шелленберга.
В фильме ряд сцен отсылает к фильмам про Джеймса Бонда, которых советские зрители в те годы видеть не могли. Сцена, где «Москвич-408» летит, подцепленный вертолётом, повторяет аналогичною сцену из фильма «Живёшь только дважды». В фильме показана рука Шефа с огромным перстнем, отпирающая замки на входной двери; такой же перстень можно видеть на руке Блофельда.
В финальной части фильма крюк подъёмного крана бьёт наклонившегося Семёна Семёновича по шее. Это не постановочная сцена — Юрий Никулин действительно получил болезненный удар, но сдержался, и, лишь чуть поджав губы, доиграл сцену. При озвучивании фильма Гайдай добавил звук удара, будто бы так и было задумано в сценарии. Из-за травмы Никулина пришлось отказаться от съемок сценарной концовки фильма, в которой Надя радует Семена Семеныча известием о грядущем пополнении в семействе.
Название: 12 стульев
Год выпуска: 1971
Сценарий: Леонид Гайдай, Владлен Бахнов
Оператор: Сергей Полуянов, Валерий Шувалов
Композитор: Александр Зацепин
Актеры: Сергей Филиппов, Михаил Пуговкин, Наталья Крачковская, Наталья Воробьева, Гликерия Богданова-Чеснокова, Нина Гребешкова, Клара Румянова, Наталья Варлей, Юрий Никулин, Григорий Шпигель, Леонид Гайдай, Игорь Ясулович, Арчил Гомиашвили
Жанр: Комедия

Описание фильма:
Во время революции и последовавшего за ней краткого периода военного коммунизма многие прятали свои ценности как можно надежнее. И вот Ипполит Матвеевич Воробьянинов, бывший Старгородский предводитель дворянства и светский лев, а ныне — скромный делопроизводитель ЗАГСа, узнает от умирающей тещи, что некогда она спрятала свои бриллианты и жемчуга в общей сложности на 150 000 золотых рублей под обивку одного из двенадцати стульев гостиного гарнитура работы известного мастера Гамбса.
Бросив все, Воробьянинов бросается на поиски стульев, в чем ему, конечно же, небескорыстно, берется помочь молодой авантюрист, «великий комбинатор» Остап Бендер. Найти следы разрозненного гарнитура непросто. Не облегчает положения и то, что перед смертью теща Воробьянинова открыла тайну сокровищ и своему исповеднику, отцу Федору, всю жизнь мечтавшему о собственном свечном заводике в Самаре…
Продолжительность: 02:32:35
Рейтинг на:
Качество видео: DVDRip
Видеокодек: Xvid
Размер кадра: 720x544
Битрейт видео: ~2 075 Kbps
Аудиокодек: AC-3, 6 channels
Битрейт аудио: 448 Kbps
Format : AVI
Format/Info : Audio Video Interleave
File size : 1.36 GiB
Duration : 1h 16mn
Overall bit rate : 2 530 Kbps
Video #0
ID : 0
Format : MPEG-4 Visual
Format profile : Advanced Simple@L5
Format settings, BVOP : 1
Format settings, QPel : No
Format settings, GMC : No warppoints
Format settings, Matrix : Custom
Codec ID : XVID
Codec ID/Hint : XviD
Duration : 1h 16mn
Bit rate : 2 075 Kbps
Width : 720 pixels
Height : 544 pixels
Display aspect ratio : 4:3
Frame rate : 25.000 fps
Color space : YUV
Chroma subsampling : 4:2:0
Bit depth : 8 bits
Scan type : Progressive
Compression mode : Lossy
Bits/(Pixel*Frame) : 0.212
Stream size : 1.12 GiB (82%)
Writing library : XviD 1.2.0.dev47 (UTC 2006-11-01)
Audio #1
ID : 1
Format : AC-3
Format/Info : Audio Coding 3
Mode extension : CM (complete main)
Codec ID : 2000
Duration : 1h 16mn
Bit rate mode : Constant
Bit rate : 448 Kbps
Channel(s) : 6 channels
Channel positions : Front: L C R, Side: L R, LFE
Sampling rate : 48.0 KHz
Bit depth : 16 bits
Compression mode : Lossy
Delay relative to video : 1s 993ms
Stream size : 247 MiB (18%)
Alignment : Split accross interleaves
Interleave, duration : 96 ms (2.40 video frames)
Interleave, preload duration : 96 ms
Language : Russian
Format : AVI
Format/Info : Audio Video Interleave
File size : 1.36 GiB
Duration : 1h 15mn
Overall bit rate : 2 577 Kbps
Video #0
ID : 0
Format : MPEG-4 Visual
Format profile : Advanced Simple@L5
Format settings, BVOP : 1
Format settings, QPel : No
Format settings, GMC : No warppoints
Format settings, Matrix : Custom
Codec ID : XVID
Codec ID/Hint : XviD
Duration : 1h 15mn
Bit rate : 2 123 Kbps
Width : 720 pixels
Height : 544 pixels
Display aspect ratio : 4:3
Frame rate : 25.000 fps
Color space : YUV
Chroma subsampling : 4:2:0
Bit depth : 8 bits
Scan type : Progressive
Compression mode : Lossy
Bits/(Pixel*Frame) : 0.217
Stream size : 1.12 GiB (82%)
Writing library : XviD 1.2.0.dev47 (UTC 2006-11-01)
Audio #1
ID : 1
Format : AC-3
Format/Info : Audio Coding 3
Mode extension : CM (complete main)
Codec ID : 2000
Duration : 1h 15mn
Bit rate mode : Constant
Bit rate : 448 Kbps
Channel(s) : 6 channels
Channel positions : Front: L C R, Side: L R, LFE
Sampling rate : 48.0 KHz
Bit depth : 16 bits
Compression mode : Lossy
Delay relative to video : 958ms
Stream size : 242 MiB (17%)
Alignment : Split accross interleaves
Interleave, duration : 96 ms (2.40 video frames)
Interleave, preload duration : 96 ms
Language : Russian
Скриншоты:

Доп. информация: Роман Ильфа и Петрова собирался экранизировать Георгий Данелия, но потом «перегорел» и подарил съёмки Гайдаю, который об этом мечтал.
На роль Остапа пробовались более двадцати актёров: Владимир Высоцкий, Алексей Баталов, Олег Борисов, Валентин Гафт, Андрей Миронов, Александр Белявский, Никита Михалков, Николай Губенко. Арчила Гомиашвили режиссёр нашёл в провинции. Из-за болезни (по другой версии — из-за сильного кавказского акцента) артист не смог озвучить Бендера, в фильме он говорит голосом Юрия Саранцева. Однако в некоторых сценах слышен и голос Гомиашвили.
Перед съёмками у Сергея Филиппова уже начались сильные головные боли от рака мозга, поэтому Гайдай пригласил Ростислава Плятта, утвердив его на роль Кисы. Однако Филиппов заявил, что будет сниматься в любом случае. Ситуация разрешилась, когда слухи о настойчивом желании Филиппова дошли до Плятта, и он сам уступил роль Кисы Филиппову. Но Плятт тоже не остался без роли. В фильме он читате текст от автора.
Роль мадам Грицацуевой могли играть Галина Волчек и Нонна Мордюкова. Но Мордюкова на эту роль не подошла, показалась не смешной. Предпочтение собирались отдать Галине Волчек, но звукооператор Владимир Крачковский из команды Гайдая привёл на съёмочную площадку свою жену, студентку ВГИКа Наталью Крачковскую. Гайдай глянул на неё и сказал: «Вот она, мечта поэта».
В обоих советских фильмах «12 стульев» сыграли девять актёров.
Городские съемки сделаны в городе Рыбинск.
Название: Иван Васильевич меняет профессию
Год выпуска: 1973
Сценарий: Владлен Бахнов, Леонид Гайдай
Оператор: Сергей Полуянов, Виталий Абрамов
Композитор: Александр Зацепин
Актеры: Юрий Яковлев, Александр Демьяненко, Наталья Селезнева, Наталья Крачковская, Савелий Крамаров, Леонид Куравлев, Владимир Этуш, Михаил Пуговкин
Жанр: Комедия

Описание фильма:
Инженер-изобретатель Тимофеев сконструировал машину времени, которая соединила его квартиру с далеким шестнадцатым веком — точнее, с палатами государя Ивана Грозного. Туда-то и попадают тезка царя пенсионер-общественник Иван Васильевич Бунша и квартирный вор Жорж Милославский.
На их место в двадцатом веке «переселяется» великий государь. Поломка машины приводит ко множеству неожиданных и забавных событий…
Продолжительность: 01:39:35
Рейтинг на:
Качество видео: DVDRip
Видеокодек: AVC
Размер кадра: 720x524
Битрейт видео: ~2 965 Kbps
Аудиокодек: AC-3, 6 channels
Битрейт аудио: 448 Kbps
Format : Matroska
Format version : Version 2
File size : 2.19 GiB
Duration : 1h 31mn
Overall bit rate : 3 414 Kbps
Video #1
ID : 1
Format : AVC
Format/Info : Advanced Video Codec
Format profile : High@L4.0
Format settings, CABAC : Yes
Format settings, ReFrames : 8 frames
Codec ID : V_MPEG4/ISO/AVC
Duration : 1h 31mn
Bit rate : 2 965 Kbps
Width : 720 pixels
Height : 524 pixels
Display aspect ratio : 1.374
Frame rate : 23.976 fps
Color space : YUV
Chroma subsampling : 4:2:0
Bit depth : 8 bits
Scan type : Progressive
Bits/(Pixel*Frame) : 0.328
Stream size : 1.86 GiB (85%)
Writing library : x264 core 112 r1867 22bfd31
Language : Russian
Audio #2
ID : 2
Format : AC-3
Format/Info : Audio Coding 3
Mode extension : CM (complete main)
Codec ID : A_AC3
Duration : 1h 31mn
Bit rate mode : Constant
Bit rate : 448 Kbps
Channel(s) : 6 channels
Channel positions : Front: L C R, Side: L R, LFE
Sampling rate : 48.0 KHz
Bit depth : 16 bits
Compression mode : Lossy
Stream size : 294 MiB (13%)
Title : Original
Language : Russian
Text #3
ID : 3
Format : UTF-8
Codec ID : S_TEXT/UTF8
Codec ID/Info : UTF-8 Plain Text
Language : Russian
Скриншоты:

Доп. информация: Американским кинозрителям фильм известен под названием «Иван Васильевич: Назад в будущее» («Ivan Vasilievich: Back to the Future»).
Шведский посол говорит не на шведском языке, а на ломаном немецком, что соответствует тексту пьесы Михаила Булгакова.
В фильме Иван Грозный произносит фразу: «У меня вот тоже один такой был — крылья сделал. Я его на бочку с порохом посадил — пущай полетает!». Это имеет определенные исторические параллели. Боярина Козаринова-Голохватова, принявшего схиму, Иван Грозный, чтобы избежать казни, велел взорвать на бочке пороха, на том основании, что схимники — ангелы, а потому должны лететь на небо.
Название: Не может быть!
Год выпуска: 1975
Сценарий: Владлен Бахнов, Леонид Гайдай
Оператор: Сергей Полуянов
Композитор: Александр Зацепин
Актеры: Михаил Пуговкин, Нина Гребешкова, Вячеслав Невинный, Михаил Светин, Светлана Крючкова, Евгений Жариков, Наталья Селезнева, Олег Даль, Лариса Еремина, Михаил Кокшенов, Леонид Куравлев, Валентина Теличкина, Георгий Вицин, Людмила Шагалова, Савелий Крамаров
Продолжительность: 01:31:39
Жанр: Комедия

Описание фильма:
Фильм состоит из трёх новелл:
Преступление и наказание
В первой описываются сложности человека, живущего в советское время конца 20-х годов на нетрудовые доходы. Будучи вызванным к прокурору, главный герой небезосновательно полагает, что вызов этот не принесёт ничего хорошего. Эти же мысли посещают его супругу и шурина, которые, дабы предупредить неизбежную конфискацию имущества, срочно продают всё, что было нажито «непосильным» трудом. Кроме того, жена спешно разводится с главным героем и выходит замуж за соседа. А сам главный герой, которого всего-навсего вызывали свидетелем, в отличном настроении возвращается домой… Впрочем, героя арестуют, но это будет потом.
Забавное приключение
Во второй показаны тонкости внебрачных отношений. Уходя в выходной день якобы на работу, а на самом деле к любовнице, иногда сложно себе представить, что муж любовницы вполне может оказаться любовником подруги любовницы, а сосед подруги любовницы по коммуналке — любовником твоей собственной жены. В конце-концов, все шестеро героев чисто случайно, при интересных обстоятельствах, пересекаются вместе, и собравшись за столом, пытаются найти выход из сложившейся ситуации.
Свадебное происшествие
В третьей молодой человек, поторопившийся с предложением руки и сердца, приходит на собственную свадьбу, где никак не может узнать свою невесту — до этого они встречались только на улице и он запомнил её в зимней одежде. Попытки незаметно выяснить, кто же из присутствующих женщин его будущая жена, приводят к непредсказуемым последствиям.
Продолжительность: 01:31:39
Рейтинг на:
Качество видео: DVDRip
Видеокодек:XVID
Размер кадра:704x512
Битрейт видео:~1 678 Kbps
Аудиокодек:AC-3, 6 channels
Битрейт аудио:448 Kbps
Format : AVI
Format/Info : Audio Video Interleave
File size : 1.37 GiB
Duration : 1h 31mn
Overall bit rate : 2 136 Kbps
Video #0
ID : 0
Format : MPEG-4 Visual
Format profile : Advanced Simple@L5
Format settings, BVOP : 1
Format settings, QPel : No
Format settings, GMC : No warppoints
Format settings, Matrix : Default (H.263)
Codec ID : XVID
Codec ID/Hint : XviD
Duration : 1h 31mn
Bit rate : 1 678 Kbps
Width : 704 pixels
Height : 512 pixels
Display aspect ratio : 1.375
Frame rate : 25.000 fps
Color space : YUV
Chroma subsampling : 4:2:0
Bit depth : 8 bits
Scan type : Progressive
Compression mode : Lossy
Bits/(Pixel*Frame) : 0.186
Stream size : 1.07 GiB (79%)
Writing library : XviD 1.2.1 (UTC 2008-12-04)
Audio #1
ID : 1
Format : AC-3
Format/Info : Audio Coding 3
Mode extension : CM (complete main)
Codec ID : 2000
Duration : 1h 31mn
Bit rate mode : Constant
Bit rate : 448 Kbps
Channel(s) : 6 channels
Channel positions : Front: L C R, Side: L R, LFE
Sampling rate : 48.0 KHz
Bit depth : 16 bits
Compression mode : Lossy
Stream size : 294 MiB (21%)
Alignment : Aligned on interleaves
Interleave, duration : 40 ms (1.00 video frame)
Interleave, preload duration : 512 ms
Скриншоты:
Название: Инкогнито из Петербурга
Год выпуска: 1977
Сценарий: Владлен Бахнов, Леонид Гайдай
Оператор: Сергей Полуянов
Композитор: Александр Зацепин
Актеры: Анатолий Папанов, Сергей Мигицко, Нонна Мордюкова, Ольга Анохина, Валерий Носик, Анатолий Кузнецов, Вячеслав Невинный, Леонид Куравлев, Леонид Харитонов, Олег Анофриев, Сергей Филиппов, Александр Ширвинд, Станислав Чекан
Жанр: Комедия

Описание фильма:
Комедия по мотивам пьесы Н. В. Гоголя «Ревизор». В одном из уездных городишек Российской империи градоначальники ждут приезда столичного ревизора. Неожиданно городничему докладывают о том, что в местной гостинице поселился некий подозрительный молодой человек, который по всем приметам — тот самый зловещий ревизор!
Продолжительность: 01:26:19
Рейтинг на:
Качество видео: DVDRip
Видеокодек: XVID
Размер кадра: 704x384
Битрейт видео: ~1 805 Kbps
Аудиокодек: AC-3, 6 channels
Битрейт аудио: 448 Kbps
Format : AVI
Format/Info : Audio Video Interleave
File size : 1.36 GiB
Duration : 1h 26mn
Overall bit rate : 2 262 Kbps
Video #0
ID : 0
Format : MPEG-4 Visual
Format profile : Advanced Simple@L5
Format settings, BVOP : 2
Format settings, QPel : No
Format settings, GMC : No warppoints
Format settings, Matrix : Default (MPEG)
Muxing mode : Packed bitstream
Codec ID : XVID
Codec ID/Hint : XviD
Duration : 1h 26mn
Bit rate : 1 805 Kbps
Width : 704 pixels
Height : 384 pixels
Display aspect ratio : 16:9
Frame rate : 25.000 fps
Color space : YUV
Chroma subsampling : 4:2:0
Bit depth : 8 bits
Scan type : Progressive
Compression mode : Lossy
Bits/(Pixel*Frame) : 0.267
Stream size : 1.09 GiB (80%)
Writing library : XviD 1.0.3 (UTC 2004-12-20)
Audio #1
ID : 1
Format : AC-3
Format/Info : Audio Coding 3
Mode extension : CM (complete main)
Codec ID : 2000
Duration : 1h 26mn
Bit rate mode : Constant
Bit rate : 448 Kbps
Channel(s) : 6 channels
Channel positions : Front: L C R, Side: L R, LFE
Sampling rate : 48.0 KHz
Bit depth : 16 bits
Compression mode : Lossy
Delay relative to video : 37ms
Stream size : 276 MiB (20%)
Alignment : Split accross interleaves
Interleave, duration : 40 ms (1.00 video frame)
Interleave, preload duration : 500 ms
Скриншоты:
Название: За спичками
Год выпуска: 1980
Сценарий: Владлен Бахнов, Таппио Вилппонен, Леонид Гайдай
Оператор: Сергей Полуянов
Композитор: Александр Зацепин
Актеры: Евгений Леонов, Вячеслав Невинный, Рита Полстер, Ритва Валкама, Георгий Вицин, Галина Польских, Лео Ластумяки, Нина Гребешкова, Михаил Пуговкин
Жанр: Комедия

Описание фильма:
В доме Ихалайнена кончились спички и невозможно развести огонь для приготовления так любимого финнами кофе. Потом случайная встреча с приятелем, и как следствие того, нарушение данного двадцать лет назад зарока не брать в рот спиртного. Затем неожиданное свидание в городе Юсси Ватанена со своей старой подружкой…
Продолжительность: 01:33:50
Рейтинг на:
Качество видео: DVDRip
Видеокодек: XVID
Размер кадра: 704x528
Битрейт видео: ~1 741 Kbps
Аудиокодек: AC-3, 6 channels
Битрейт аудио: 448 Kbps
Format : AVI
Format/Info : Audio Video Interleave
Format profile : OpenDML
Format settings : rec
File size : 1.44 GiB
Duration : 1h 33mn
Overall bit rate : 2 194 Kbps
Video #0
ID : 0
Format : MPEG-4 Visual
Format profile : Advanced Simple@L5
Format settings, BVOP : 2
Format settings, QPel : No
Format settings, GMC : 3 warppoints
Format settings, Matrix : Default (MPEG)
Codec ID : XVID
Codec ID/Hint : XviD
Duration : 1h 33mn
Bit rate : 1 741 Kbps
Width : 704 pixels
Height : 528 pixels
Display aspect ratio : 4:3
Frame rate : 25.000 fps
Color space : YUV
Chroma subsampling : 4:2:0
Bit depth : 8 bits
Scan type : Progressive
Compression mode : Lossy
Bits/(Pixel*Frame) : 0.187
Stream size : 1.14 GiB (79%)
Writing library : XviD 1.2.1 (UTC 2008-12-04)
Audio #1
ID : 1
Format : AC-3
Format/Info : Audio Coding 3
Mode extension : CM (complete main)
Codec ID : 2000
Duration : 1h 33mn
Bit rate mode : Constant
Bit rate : 448 Kbps
Channel(s) : 6 channels
Channel positions : Front: L C R, Side: L R, LFE
Sampling rate : 48.0 KHz
Bit depth : 16 bits
Compression mode : Lossy
Stream size : 301 MiB (20%)
Alignment : Aligned on interleaves
Interleave, duration : 64 ms (1.60 video frames)
Interleave, preload duration : 192 ms
Скриншоты:

Доп. информация: Евгений Леонов приехал в Финляндию на съёмки фильма «За спичками». Студенты Университета Хельсинки пригласили в гости советского комедийного артиста. Фильмы с его участием пользовались у них неизменным успехом. Когда Леонов поднялся на кафедру, его встретил оглушительный свист! Артист сделал вид, что он здесь ни при чём, и быстро ретировался.
— Они меня освистали! — сказал он в недоумении сопровождающим.
— У финской молодёжи, — пояснили ему через переводчика, — свист — это форма приветствия и выражения добрых чувств…
Леонов снова встал за кафедру, заложил в рот пальцы и засвистел изо всех сил! Студенты его дружно поддержали. После столь оригинальной разминки встреча пошла как по маслу…
Название: Спортлото-82
Год выпуска: 1982
Сценарий: Владлен Бахнов, Леонид Гайдай
Оператор: Сергей Полуянов, Виталий Абрамов
Композитор: Александр Зацепин
Актеры: Альгис Арлаускас, Светлана Аманова, Михаил Пуговкин, Михаил Кокшенов, Денис Кмит, Нина Гребешкова, Андрей Толшин, Борислав Брондуков
Жанр: Комедия

Описание фильма:
На один из билетов `Спортлото` выпадает крупный выигрыш. Однако билет оказывается потерянным. В поисках его герои попадают во множество занятных переделок, над которыми зритель веселится от души…
Продолжительность: 01:29:07
Рейтинг на:
Качество видео: DVDRip
Видеокодек: XVID
Размер кадра: 720x416
Битрейт видео: ~2 009 Kbps
Аудиокодек: MP3, 2 channels
Битрейт аудио: 192 Kbps
Format : AVI
Format/Info : Audio Video Interleave
File size : 1.37 GiB
Duration : 1h 29mn
Overall bit rate mode : Variable
Overall bit rate : 2 194 Kbps
Video #0
ID : 0
Format : MPEG-4 Visual
Format profile : Advanced Simple@L5
Format settings, BVOP : 1
Format settings, QPel : No
Format settings, GMC : No warppoints
Format settings, Matrix : Custom
Codec ID : XVID
Codec ID/Hint : XviD
Duration : 1h 29mn
Bit rate : 2 009 Kbps
Width : 720 pixels
Height : 416 pixels
Display aspect ratio : 16:9
Frame rate : 25.000 fps
Color space : YUV
Chroma subsampling : 4:2:0
Bit depth : 8 bits
Scan type : Progressive
Compression mode : Lossy
Bits/(Pixel*Frame) : 0.268
Stream size : 1.25 GiB (92%)
Writing library : XviD 1.2.0.dev47 (UTC 2006-11-01)
Audio #1
ID : 1
Format : MPEG Audio
Format version : Version 1
Format profile : Layer 3
Mode : Joint stereo
Mode extension : MS Stereo
Codec ID : 55
Codec ID/Hint : MP3
Duration : 1h 29mn
Bit rate mode : Variable
Bit rate : 173 Kbps
Nominal bit rate : 192 Kbps
Channel(s) : 2 channels
Sampling rate : 48.0 KHz
Compression mode : Lossy
Stream size : 110 MiB (8%)
Alignment : Aligned on interleaves
Interleave, duration : 24 ms (0.60 video frame)
Interleave, preload duration : 503 ms
Writing library : LAME3.97
Encoding settings : -m j -V 4 -q 2 -lowpass 18.6 --abr 192
Language : Russian
Скриншоты:

Доп. информация: Место съёмок — Крым, железнодорожный вокзал — Феодосия, базар — Феодосия, стоянка «автокочевников» — Мыс Капчик. Дом, в котором жили Сан Саныч и Костя Луков, находится в Феодосии по адресу ул. Прямая, 1. Правда, дом перестроен до неузнаваемости.
Игровая комбинация, выбранная героиней фильма (1,2,3,4,5,6), была представлена зрителю, как «самая редкая» или «невероятная». На самом деле, с точки зрения комбинаторики, эта комбинация такая же обычная, как и любая другая, она имеет такие же шансы на выпадение, как и любая другая комбинация. Примечательно, что в реальной жизни комбинация повторилась на 2/3. В одном из тиражей "Спортлото" в категории 6 из 45 выпали шары 1,2,3,4.
Пляж, где купается и загорает Константин — городской пляж Алушты. На съёмках Сан Саныча и Степана в эпизодах с лодкой виден мыс Плака, также на заднем плане видна Медведь-Гора (Аю-Даг).
Большой прямоугольный камень, который обходит Сан Саныч и орех, с которого Никулин бросался грушами ("Орех Никулина") из другого к/ф Гайдая "Кавказская пленница, или Новые приключения Шурика" находятся на расстоянии нескольких метров друг от друга
Название: Опасно для жизни!
Год выпуска: 1985
Сценарий: Владлен Бахнов, Леонид Гайдай
Оператор: Сергей Полуянов, Виталий Абрамов
Композитор: Александр Зацепин
Актеры: Леонид Куравлев, Лариса Удовиченко, Татьяна Кравченко, Георгий Вицин, Тамаз Толорая, Нина Гребешкова, Борислав Брондуков, Владимир Носик, Михаил Кокшенов
Жанр: Комедия

Описание фильма:
Спартак Молодцов — человек предельно аккуратный, непримиримый к любому беспорядку. Обнаружив однажды оборванный провод высоковольтной линии, он, разумеется, не мог пройти мимо. Но, как известно, «ни одно доброе дело не остается безнаказанным» — теперь Спартак опаздывает на работу, любимая сестра собирается съехать, а невероятно активный грузин старается ввернуть ему взятку. Тем более, чинить провод никто и не собирается…
Продолжительность: 01:27:46
Рейтинг на:
Качество видео: DVDRip
Видеокодек: DX50
Размер кадра: 720x304
Битрейт видео: ~2 027 Kbps
Аудиокодек: AC-3, 2 channels
Битрейт аудио: 192 Kbps
Format : AVI
Format/Info : Audio Video Interleave
File size : 1.37 GiB
Duration : 1h 27mn
Overall bit rate : 2 229 Kbps
Video #0
ID : 0
Format : MPEG-4 Visual
Format settings, BVOP : Yes
Format settings, QPel : No
Format settings, GMC : No warppoints
Format settings, Matrix : Default (H.263)
Codec ID : DX50
Codec ID/Hint : DivX 5
Duration : 1h 27mn
Bit rate : 2 027 Kbps
Width : 720 pixels
Height : 304 pixels
Display aspect ratio : 2.35:1
Frame rate : 25.000 fps
Color space : YUV
Chroma subsampling : 4:2:0
Bit depth : 8 bits
Scan type : Progressive
Compression mode : Lossy
Bits/(Pixel*Frame) : 0.370
Stream size : 1.24 GiB (91%)
Writing library : DivX 6.8.3-6.8.4 (UTC 2008-06-07)
Audio #1
ID : 1
Format : AC-3
Format/Info : Audio Coding 3
Mode extension : CM (complete main)
Codec ID : 2000
Duration : 1h 27mn
Bit rate mode : Constant
Bit rate : 192 Kbps
Channel(s) : 2 channels
Channel positions : Front: L R
Sampling rate : 48.0 KHz
Bit depth : 16 bits
Compression mode : Lossy
Stream size : 121 MiB (9%)
Alignment : Aligned on interleaves
Interleave, duration : 40 ms (1.00 video frame)
Interleave, preload duration : 512 ms
Скриншоты:
Название: Частный детектив, или Операция «Кооперация»
Год выпуска: 1989
Сценарий: Аркадий Инин, Леонид Гайдай, Юрий Волович
Оператор: Игорь Черных
Композитор: Александр Зацепин
Актеры: Дмитрий Харатьян, Ирина Феофанова, Спартак Мишулин, Роман Мадянов, Михаил Светин, Александр Белявский, Михаил Кокшенов, Минтай Утепбергенов, Леонид Куравлев, Нина Гребешкова, Евгений Жариков, Федор Переверзев, Леонид Ярмольник, Семен Фарада, Наталья Крачковская, Муза Крепкогорская, Николай Рыбников
Жанр: Комедия

Описание фильма:
Молодой человек, оставшись без работы, решает открыть частное сыскное бюро. Неожиданно подворачивается серьезное дело. Но вскоре детектив попадает в руки главаря-мафиози…
Продолжительность: 01:28:52
Рейтинг на:
Качество видео: DVDRip
Видеокодек: XVID
Размер кадра: 704x512
Битрейт видео: ~2 001 Kbps
Аудиокодек: AC-3, 2 channels
Битрейт аудио: 192 Kbps
Format : AVI
Format/Info : Audio Video Interleave
File size : 1.37 GiB
Duration : 1h 28mn
Overall bit rate : 2 203 Kbps
Video #0
ID : 0
Format : MPEG-4 Visual
Format profile : Advanced Simple@L5
Format settings, BVOP : 2
Format settings, QPel : No
Format settings, GMC : No warppoints
Format settings, Matrix : Default (MPEG)
Muxing mode : Packed bitstream
Codec ID : XVID
Codec ID/Hint : XviD
Duration : 1h 28mn
Bit rate : 2 001 Kbps
Width : 704 pixels
Height : 512 pixels
Display aspect ratio : 1.375
Frame rate : 25.000 fps
Color space : YUV
Chroma subsampling : 4:2:0
Bit depth : 8 bits
Scan type : Progressive
Compression mode : Lossy
Bits/(Pixel*Frame) : 0.222
Stream size : 1.24 GiB (91%)
Writing library : XviD 1.0.3 (UTC 2004-12-20)
Audio #1
ID : 1
Format : AC-3
Format/Info : Audio Coding 3
Mode extension : CM (complete main)
Codec ID : 2000
Duration : 1h 28mn
Bit rate mode : Constant
Bit rate : 192 Kbps
Channel(s) : 2 channels
Channel positions : Front: L R
Sampling rate : 48.0 KHz
Bit depth : 16 bits
Compression mode : Lossy
Stream size : 122 MiB (9%)
Alignment : Split accross interleaves
Interleave, duration : 40 ms (1.00 video frame)
Interleave, preload duration : 500 ms
Скриншоты:
Название: На Дерибасовской хорошая погода, или На Брайтон-Бич опять идут дожди
Год выпуска: 1992
Сценарий: Аркадий Инин, Леонид Гайдай, Юрий Волович
Оператор: Вадим Алисов
Композитор: Виктор Бабушкин, Александр Зацепин
Актеры: Дмитрий Харатьян, Келли Мак-Грил, Андрей Мягков, Михаил Кокшенов, Юрий Волынцев, Эммануил Виторган, Армен Джигарханян, Мамука Кикалейшвили, Евгений Весник, Наталья Крачковская, Леонид Куравлев, Спартак Мишулин
Жанр: Комедия

Описание фильма:
Намечено проведение важных переговоров между президентами двух великих держав — СССР и США. Однако русская мафия, пустившая корни в Америке, ставит проведение столь важного саммита под угрозу.
Тогда, временно объединившись в борьбе с преступными элементами, спец-службы обоих государств — КГБ и ЦРУ — отправляют своих лучших агентов Федора Соколова и Мэри Стар на Брайтон-Бич. Именно там скрывается главный мафиози.
Продолжительность: 01:30:11
Рейтинг на:
Качество видео: DVDRip
Видеокодек: XVID
Размер кадра: 720x544
Битрейт видео: ~1 859 Kbps
Аудиокодек: AC-3, 6 channels
Битрейт аудио: 448 Kbps
Format : AVI
Format/Info : Audio Video Interleave
File size : 1.46 GiB
Duration : 1h 30mn
Overall bit rate : 2 315 Kbps
Video #0
ID : 0
Format : MPEG-4 Visual
Format profile : Advanced Simple@L5
Format settings, BVOP : 1
Format settings, QPel : No
Format settings, GMC : No warppoints
Format settings, Matrix : Custom
Codec ID : XVID
Codec ID/Hint : XviD
Duration : 1h 30mn
Bit rate : 1 859 Kbps
Width : 720 pixels
Height : 544 pixels
Display aspect ratio : 4:3
Frame rate : 29.970 fps
Color space : YUV
Chroma subsampling : 4:2:0
Bit depth : 8 bits
Scan type : Progressive
Compression mode : Lossy
Bits/(Pixel*Frame) : 0.158
Stream size : 1.17 GiB (80%)
Writing library : XviD 1.2.0.dev47 (UTC 2006-11-01)
Audio #1
ID : 1
Format : AC-3
Format/Info : Audio Coding 3
Mode extension : CM (complete main)
Codec ID : 2000
Duration : 1h 30mn
Bit rate mode : Constant
Bit rate : 448 Kbps
Channel(s) : 6 channels
Channel positions : Front: L C R, Side: L R, LFE
Sampling rate : 48.0 KHz
Bit depth : 16 bits
Compression mode : Lossy
Stream size : 289 MiB (19%)
Alignment : Split accross interleaves
Interleave, duration : 96 ms (2.88 video frames)
Interleave, preload duration : 96 ms
Language : Russian
Скриншоты:

Доп. информация: В фильме на Арбате Павел Смеян поёт песню «Выть, пить, жить» из альбома «Апостол # 1».
Во время сцен с полковником Петренко звучит мелодия песни «Мгновения» из телефильма «Семнадцать мгновений весны». Также эта песня исполняется в ресторане Ланжерон в честь приезда Соколова. К тому же Фёдор напевает её в плену у мафиози.
ПРИЯТНОГО ВСЕМ ПРОСМОТРА!!!
Время раздачи: 24/7
[NNM-Club.ru]_Leonid Iovich Gayday.torrent
 Торрент: Платиновая раздача  Зарегистрирован
 
Примагнититься

Скачать
 Зарегистрирован:   14 Мар 2012 00:08:53
 Размер:   22,8 GB  (
 Рейтинг:   4,9 (Голосов: 758)
 Поблагодарили:   2000
 Проверка:   Оформление проверено модератором 18 Мар 2012 22:13:35
Как cкачать  ·  Как раздать  ·  Правильно оформить  ·  Поднять ратио!  
Главн​ыйГер​ой​
Стаж: 3 года
Сообщений: 76
Ratio: 29,972
3.08%
на прошлой неделе с дочкой-второклассницой смотрели комедии Гайдая в ознакомительных целях. В итоге дочка смехом заливалась, ей оч. понравилось. Я так эти фильмы в режиме нон-стоп могу смореть, все равно как в первый раз
vovka036
Стаж: 6 лет 6 мес.
Сообщений: 834
Ratio: 0,783
38.11%
russia.gif
vpu писал(а): Перейти к сообщению
С 61 по 82 отличные фильмы. Последние 3 качать смысла нет. Релизеру - уважуха!

Согласен. Ну "Операция кооперация" тоже можно включить в список.
serfar
 
Стаж: 7 лет
Сообщений: 579
Ratio: 3,241
10.9%
Откуда: 11ru
ussr.gif
фильмы как проблемы страны и персонажей.
Очень тщательно надо смотреть и всматриваться в детали жизни...
Но трудно будет поколению телепузиков и маппет-шоу прочухать жизнь и реалии их родителей.
Ну разве только очень умным из того поколения может удастся уловить тот .дух созидания и струю жизни
Чуйка должна быть к добру и линии партии и правтельства ))).
Смеетесь суслики и хомяки?
А зря.
Эххх.
Если бы вы умели читать, а я писать так что бы вы не смогли оторваться от того что я написал...тогда мы жили бы в другой стране.
Америка ссалась и сралась бы по углам как диарейная тварь...
Она и сейчас со всеми этими симптомами, но с разрушением СССР её ,Америки, агония только продлилась
Миру эта агония еще дорого обойдется.
Америку надо убить быстрей. Народу планеты это предпочтительней
Nixonftp
Стаж: 10 лет 4 мес.
Сообщений: 12
Ratio: 37,457
53.45%
russia.gif
"За спичками" оказался моему Dune HD не по зубам, воспроизводит с ошибками.
за сборник - Спасибо
zavik24
Стаж: 4 года
Сообщений: 11
Ratio: 9,816
9.3%
Смотрел смотрю и буду смотреть! :поклоняется: :респект: :клево: :смех:
failof
Стаж: 6 лет 8 мес.
Сообщений: 4
Ratio: 6,293
1.54%
Спасибо огромное, все фильмы одного режиссера скачать , это очень удобно
Omeg
Стаж: 5 лет 7 мес.
Сообщений: 421
Ratio: 107,645
Раздал: 10,09 TB
100%
russia.gif
И от меня низкий поклон за труды!
nickgrinko
Стаж: 1 год 5 мес.
Сообщений: 9
Суперский сборник!

Большое спасибо :)
adept2001
Стаж: 1 год 4 мес.
Сообщений: 2
Ratio: 53,489
Раздал: 888 GB
100%
cyprus.gif
Хотел купить на Ozon! Благодарен безумно! Беру всё, ибо фильмы - дети режиссёра, которых не выбирают!
god54she
Стаж: 7 лет 1 мес.
Сообщений: 9
Ratio: 1,157
Раздал: 16,7 GB
44.42%
russia.gif
:новогоднее пиво: Я счастлива БЛАГОДАРЮ ЗА ПРЕДОСТАВЛЕННОЕ УДОВОЛЬСТВИЕ....
питер99
Стаж: 7 лет
Сообщений: 167
Ratio: 2,401
100%
russia.gif
спасибо.
leodar
Стаж: 5 лет 4 мес.
Сообщений: 8
Ratio: 7,994
100%
Откуда: Питер
russia.gif
Спасибо за раздачу
_umka_
Стаж: 6 лет 2 мес.
Сообщений: 16
Ratio: 201,742
100%
отличная раздача
skazo​chnik​sa​
Стаж: 5 лет 8 мес.
Сообщений: 21
Ratio: 80,827
100%
Откуда: Rostov on Don
russia.gif
ya71 писал(а): Перейти к сообщению
Цитата:
все фильмы - шедевры советского кинематографа!!!

Ну уж не преувеличивайте, далеко не все. После "Не может быть" наметилась деградация, которая и дошла до апогея в последних двух работах. Школьная самодеятельность с привлечением известных актёров, или фильмы, снятые М.Кокшеновым... Но это нисколько не умаляет достоинство фильмов "золотого периода". Это просто шедевры!

Какую мысль хотели вы до нас донести ? =)

_________________
Уважайте в себе и в других человеческую личность
4avezzz
Стаж: 6 лет 4 мес.
Сообщений: 164
Ratio: 122,769
100%
jamaica.gif
По мне, так по 1973. :респект: а потом - все. :нет: увы....
Показать сообщения:   
Начать новую тему   Ответить на тему    Торрент-трекер NNM-Club -> Классика кино и Старые фильмы до 90-х -> Отечественная Классика (HD*Rip/LQ, DVDRip, SATRip, VHSRip) Часовой пояс: GMT + 3
Страницы:   Пред.  1, 2, 3, 4, 5, 6  След.
Страница 5 из 6