Классический форум-трекер
canvas not supported
Нас вместе: 4 076 452

Два капитана (1976) 3хDVD9 [Реставрация КП]


 
 
RSS
Начать новую тему   Ответить на тему    Торрент-трекер NNM-Club -> Видео -> Отечественные Фильмы для детей
Автор Сообщение
anonymous
Стаж: 11 лет 1 мес.
Сообщений: 3147
Поблагодарили: 79187
0%
Страны: СССР
Жанры: мелодрама, приключения
Продолжительность: 01:06:23+01:12:52+01:23:46+01:11:07+01:14:22+01:04:33

Режиссер: Евгений Карелов
Сценарий: Евгений Карелов, Вениамин Каверин, Владимир Савин
Оператор: Валентин Макаров
Композитор : Евгений Птичкин
Художник: Михаил Карташов

В ролях: Борис Токарев (Саня Григорьев), Сережа Кудрявцев (Саня Григорьев в детстве), Елена Прудникова (Катя Татаринова), Елена Лобкина (Катя Татаринова в детстве), Юрий Богатырев (Ромашов), Алексей Сенчев (Ромашов в детстве), Николай Гриценко (Николай Татаринов), Георгий Куликов (Кораблёв)


Описание: В начале века в провинциальном городке десятилетний Саня Григорьев находит в речке сумку с письмами участников какой-то пропавшей экспедиции. По удивительному стечению обстоятельств с поисками ее следов будет связана вся его дальнейшая жизнь, и роковую роль сыграет в ней тот, по чьей вине эта экспедиция погибла…
Премьера (мир): 26 февраля 1977
Релиз-группа: by almikl ® &

Субтитры: нет

Качество: DVD9
Формат: MPEG-PS
Видео кодек: MPEG-2 Video
Аудио кодек: AC3
Видео: 720x576 (4:3), 25.000 fps, MPEG-2 Video, 5 500 Kbps
Аудио: AC3, 448 Kbps, 48.0 KHz, 1 ch
Код: выделить все
General
Complete name                    : VTS_02_1.VOB
Format                           : MPEG-PS
File size                        : 1 024 MiB
Duration                         : 23mn 37s
Overall bit rate                 : 6 058 Kbps

Video
ID                               : 224 (0xE0)
Format                           : MPEG Video
Format version                   : Version 2
Format profile                   : Main@Main
Format settings, BVOP            : Yes
Format settings, Matrix          : Default
Format settings, GOP             : M=3, N=15
Duration                         : 23mn 37s
Bit rate mode                    : Constant
Bit rate                         : 5 500 Kbps
Width                            : 720 pixels
Height                           : 576 pixels
Display aspect ratio             : 4:3
Frame rate                       : 25.000 fps
Standard                         : PAL
Color space                      : YUV
Chroma subsampling               : 4:2:0
Bit depth                        : 8 bits
Scan type                        : Interlaced
Scan order                       : Top Field First
Bits/(Pixel*Frame)               : 0.530
Stream size                      : 928 MiB (91%)

Audio
ID                               : 128 (0x80)
Format                           : AC-3
Format/Info                      : Audio Coding 3
Mode extension                   : CM (complete main)
Duration                         : 23mn 37s
Bit rate mode                    : Constant
Bit rate                         : 448 Kbps
Channel(s)                       : 1 channel
Channel positions                : Front: C
Sampling rate                    : 48.0 KHz
Bit depth                        : 16 bits
Video delay                      : -80ms
Stream size                      : 75.7 MiB (7%)

Menu
Title: My Passport
Size: 6.02 Gb ( 6 314 606 KBytes ) - DVD-9
Enabled regions: 1, 2, 3, 4, 5, 6, 7, 8

VTS_01 :
Play Length: 00:00:17
Video: PAL 4:3 (720x576) VBR

VTS_02 :
Play Length: 01:06:23
Video: PAL 4:3 (720x576) VBR
Audio:
Russian (Dolby AC3, 1 ch)

VTS_03 :
Play Length: 01:12:52
Video: PAL 4:3 (720x576) VBR
Audio:
Russian (Dolby AC3, 1 ch)
Бонусы: нет
Скриншоты:



Время раздачи: 24/7, круглосуточно, до 10 скачавших
Все релизы Два капитана (1976) на NNM-CLUB
[NNM-Club.me]_DVA_KAPITANA.torrent
 Торрент: Платиновая раздача  Зарегистрирован
 
Скачать


Примагнититься
 Зарегистрирован:   05 Сен 2013 11:35:51
 Размер:   18,7 GB  (
 Рейтинг:   4,7 (Голосов: 73)
 Поблагодарили:   234
 Проверка:   Оформление проверено модератором 05 Сен 2013 12:13:38
Как cкачать  ·  Как раздать  ·  Правильно оформить  ·  Поднять ратио!  
sao1977
Стаж: 8 лет 6 мес.
Сообщений: 2
Ratio: 2,739
0.18%
russia.gif
Никакая это не реставрация. В 5-6 серии обыкновенная "рябь", ничем не исправленная!
anonymous ®
Стаж: 11 лет 1 мес.
Сообщений: 3147
Поблагодарили: 79187
0%
sao1977
за что купил (скачал) , за то и продаю :подмигивание:
Kochevnik
Стаж: 9 лет
Сообщений: 44
Ratio: 106,814
100%
Откуда: Севастополь
russia.gif
Хороший фильм! Спасибо за раздачу!

_________________
За бесконечный период число вероятных сочетаний будет исчерпано, и вселенная повторится. Ты вновь выйдешь из чрева, вновь окрепнет твоя кость, вновь в твои, те же руки попадет та же самая страница, и ты вновь все переживешь, вплоть до своей немыслимой смерти. Хорхе Луис Борхес
slava9994
Стаж: 4 года 5 мес.
Сообщений: 625
Ratio: 9,205
Раздал: 10,83 TB
Поблагодарили: 146
100%
kazakhstan.gif
anonymous
всегда найдутся не довольные... спасибо. гляну еще раз :приветствую:

_________________
Onionland

120 MB/s 120 MB/s
Kapitan_Nemo
Стаж: 7 лет 7 мес.
Сообщений: 126
Ratio: 5,263
100%
Классная картина. Поколению "Пепси" рекомендуется к просмотру.
Дым Аф
Стаж: 4 года 10 мес.
Сообщений: 130
Ratio: 3,161
100%
Kapitan_Nemo писал(а): Перейти к сообщению
Классная картина. Поколению "Пепси" рекомендуется к просмотру.

Да, верно. Терпеть не могу этот фильм с детства. Типичнейшая серятина мэйд ин совдепия
Kapitan_Nemo
Стаж: 7 лет 7 мес.
Сообщений: 126
Ratio: 5,263
100%
Дым Аф писал(а): Перейти к сообщению
Kapitan_Nemo писал(а): Перейти к сообщению
Классная картина. Поколению "Пепси" рекомендуется к просмотру.

Да, верно. Терпеть не могу этот фильм с детства. Типичнейшая серятина мэйд ин совдепия

=) Да... Вы правы, фильм "Горячая жевательная резинка" гораздо более яркий. Слоган Пепси, как я понял: Пепси - живи здесь и сейчас! ... Pepsi Pulse Ёу =) Кайф. Книгу Каверина, по которой поставлен фильм "Два капитана" вы должно быть, тоже не читали. Книга полезная была, для читающих подростков.
balu109
Стаж: 7 лет 7 мес.
Сообщений: 246
Ratio: 4,687
2.08%
Откуда: Kharkiv
ukraine.gif
Хороший фильм о дружбе, любви и предательстве. И книга отличная - раз в пару лет перечитываю
mksmks
Стаж: 8 лет 2 мес.
Сообщений: 46
Ratio: 5,627
3.93%
Kapitan_Nemo писал(а): Перейти к сообщению
....Книга полезная была, для читающих подростков....

Ты спросил бы его в начале, знает ли он что такое книга и держал ли он ее хоть раз в руке.
Боюсь, что кроме ложки, мышки и "сотки" в его руке ничего не было.
tu116
Стаж: 8 лет 9 мес.
Сообщений: 278
Ratio: 10,987
3.53%
russia.gif
Не могу сказать за других, но для меня этот фильм существует в двух версиях, которые я обе обожаю. Сама книга Вениамина Карелина была воплощением мечты мальчишек СССР.
Сейчас и мальчишки и книжки другие - электронные. Но и им я рекомендую для получения позитивных эмоций обязательно найти время для просмотра этого замечательного фильма, но в 2-х версиях.
1-я версия книги в экранизации 1955 года Два Капитана
Посмотрите тоже, не пожалеете.
bktop
Стаж: 3 года 2 мес.
Сообщений: 45
Ratio: 11,898
Поблагодарили: 238
100%
tu116, пишыца, как слышыца?
Каверин и Карелин - два разных, и оба небезызвестных, писателя.
Вениамин Каверин и Лазарь Карелин. "Два капитана" и "Змеелов".
Такие вещи нужно знать.
Показать сообщения:   
Начать новую тему   Ответить на тему    Торрент-трекер NNM-Club -> Видео -> Отечественные Фильмы для детей Часовой пояс: GMT + 3
Страница 1 из 1