Классический форум-трекер
canvas not supported
Нас вместе: 4 071 328
loading...

Крылатые монстры с Дэвидом Аттенборо / Flying Monsters with David Attenborough (2011) [1080p] BDRip


 
 
RSS
Начать новую тему   Ответить на тему    Торрент-трекер NNM-Club -> Зарубежные TV-бренды -> Доисторический мир
Автор Сообщение
mobilnik66 ®
Стаж: 6 лет 4 мес.
Сообщений: 249
Ratio: 56,443
Поблагодарили: 17445
100%
Крылатые монстры с Дэвидом Аттенборо / Flying Monsters with David Attenborough (2011) [1080p] BDRip
Русское название: Крылатые монстры с Дэвидом Аттенборо
Оригинальное название: Flying Monsters with David Attenborough
Режиссер: Мэттью Диас
Год выпуска: 2011
Жанр: Документальный

Описание:
Миллионы лет назад, когда на Земле царили динозавры, в воздухе царили летающие ящеры - птерозавры. В фильме известный натуралист и ведущий Дэвид Аттенборо рассказывает об этих существах.


Участники: Дэвид Аттенборо, Дуглас А. Лоусон

Продолжительность: 01:10:41

Перевод: Одноголосый закадровый, профессиональный
Язык субтитров: Английский
Вид субтитров: Вшитые (Отключаемые)

Видеокодек: MPEG-4 AVC/H.264
Битрейт видео: ~8000 Кбит/сек
Размер кадра: 1920 x 1080
Качество видео: BDRip
Аудио#1:Russian: DTS, 6Ch, 48kHz, 755Kbps Авторский (одноголосый) В.Курдов
Аудио#2: English: DTS, 6Ch, 48kHz, 755Kbps
Общее
Уникальный идентификатор : 170778536440820917169338484714696149317 (0x807ABFED959BCE12AAE3DDBE65810945)
Полное имя : D:\HD\Документалка\Крылатые монстры с Дэвидом Аттенборо (2011)\Flying.Monsters.BDRip.1080p .mkv
Формат : Matroska
Версия формата : Version 2
Размер файла : 4,70 Гбайт
Продолжительность : 1 ч. 10 м.
Общий поток : 9512 Кбит/сек
Дата кодирования : UTC 2013-01-20 05:44:28
Программа кодирования : mkvmerge v3.4.0 ('Rapunzel') сборка от May 15 2010 09:38:20
Библиотека кодирования : libebml v0.8.0 + libmatroska v0.9.0

Видео
Идентификатор : 1
Формат : AVC
Формат/Информация : Advanced Video Codec
Профиль формата : High@L4.1
Параметр CABAC формата : Да
Параметр ReFrames формата : 3 кадра
Идентификатор кодека : V_MPEG4/ISO/AVC
Продолжительность : 1 ч. 10 м.
Битрейт : 8000 Кбит/сек
Ширина : 1920 пикселей
Высота : 1080 пикселей
Соотношение сторон : 16:9
Режим частоты кадров : Постоянный
Частота кадров : 23,976 кадра/сек
Цветовое пространство : YUV
Субдискретизация насыщенности : 4:2:0
Битовая глубина : 8 бит
Тип развёртки : Прогрессивная
Бит/(Пиксели*Кадры) : 0.161
Размер потока : 3,86 Гбайт (82%)
Заголовок : Flying Monsters with David Attenborough
Библиотека кодирования : x264 core 120 r2164 da19765
Настройки программы : cabac=1 / ref=4 / deblock=1:-3:-3 / analyse=0x3:0 / me=tesa / subme=11 / psy=1 / psy_rd=1.00:0.00 / mixed_ref=1 / me_range=16 / chroma_me=1 / trellis=2 / 8x8dct=1 / cqm=0 / deadzone=21,11 / fast_pskip=0 / chroma_qp_offset=-2 / threads=3 / sliced_threads=0 / nr=0 / decimate=1 / interlaced=0 / bluray_compat=0 / constrained_intra=0 / bframes=9 / b_pyramid=1 / b_adapt=2 / b_bias=0 / direct=3 / weightb=1 / open_gop=1 / weightp=2 / keyint=240 / keyint_min=23 / scenecut=40 / intra_refresh=0 / rc_lookahead=40 / rc=2pass / mbtree=1 / bitrate=8000 / ratetol=1.0 / qcomp=0.60 / qpmin=10 / qpmax=50 / qpstep=4 / cplxblur=20.0 / qblur=0.5 / vbv_maxrate=50000 / vbv_bufsize=50000 / nal_hrd=none / ip_ratio=1.40 / aq=1:0.80
Язык : Russian
Default : Нет
Forced : Нет

Аудио #1
Идентификатор : 2
Формат : DTS
Формат/Информация : Digital Theater Systems
Режим : 16
Параметр Endianness формата : Big
Идентификатор кодека : A_DTS
Продолжительность : 1 ч. 10 м.
Вид битрейта : Постоянный
Битрейт : 755 Кбит/сек
Каналы : 6 каналов
Расположение каналов : Front: L C R, Side: L R, LFE
Частота : 48,0 КГц
Битовая глубина : 24 бит
Метод сжатия : С потерями
Размер потока : 381 Мбайт (8%)
Заголовок : Russian
Язык : Russian
Default : Да
Forced : Нет

Аудио #2
Идентификатор : 3
Формат : DTS
Формат/Информация : Digital Theater Systems
Режим : 16
Параметр Endianness формата : Big
Идентификатор кодека : A_DTS
Продолжительность : 1 ч. 10 м.
Вид битрейта : Постоянный
Битрейт : 755 Кбит/сек
Каналы : 6 каналов
Расположение каналов : Front: L C R, Side: L R, LFE
Частота : 48,0 КГц
Битовая глубина : 24 бит
Метод сжатия : С потерями
Размер потока : 381 Мбайт (8%)
Заголовок : English
Язык : English
Default : Нет
Forced : Нет

Текст
Идентификатор : 4
Формат : UTF-8
Идентификатор кодека : S_TEXT/UTF8
Идентификатор кодека/Информация : UTF-8 Plain Text
Заголовок : English
Язык : English
Default : Нет
Forced : Нет

Меню
00:00:00.000 : en:00:00:00.000
00:07:24.027 : en:00:07:24.027
00:13:11.040 : en:00:13:11.040
00:21:49.266 : en:00:21:49.266
00:28:23.994 : en:00:28:23.994
00:35:48.772 : en:00:35:48.772
00:40:41.564 : en:00:40:41.564
00:45:56.045 : en:00:45:56.045
00:53:42.594 : en:00:53:42.594
01:05:00.772 : en:01:05:00.772
Скриншоты:









Время раздачи: 24/7-по возможности
[NNM-Club.ru]_Flying.Monsters.BDRip.1080p .mkv.torrent
 Торрент: Платиновая раздача  Зарегистрирован
 
Скачать


Примагнититься
 Зарегистрирован:   20 Янв 2013 09:53:02
 Размер:   4,7 GB  (
 Рейтинг:   4,3 (Голосов: 23)
 Поблагодарили:   92
 Проверка:   Оформление проверено модератором 27 Янв 2013 10:56:13
Как cкачать  ·  Как раздать  ·  Правильно оформить  ·  Поднять ратио!  
DrDoom1984
Стаж: 5 лет 2 мес.
Сообщений: 5
Ratio: 11,999
100%
Спасибо!
pashkentos
Стаж: 11 лет 5 мес.
Сообщений: 30
Ratio: 1,536
Поблагодарили: 33
22.64%
russia.gif
Брошенная раздача?
Показать сообщения:   
Начать новую тему   Ответить на тему    Торрент-трекер NNM-Club -> Зарубежные TV-бренды -> Доисторический мир Часовой пояс: GMT + 3
Страница 1 из 1