Классический форум-трекер
canvas not supported
Нас вместе: 4 079 141

Street Fighter Alpha / Уличный боец Альфа OVA-1 [1999, OVA, 2 из 2] TVRip eng


 
 
RSS
Начать новую тему   Ответить на тему    Торрент-трекер NNM-Club -> Аниме с субтитрами -> Аниме (SD)
Автор Сообщение
gdfhs6t6we ®
Стаж: 8 лет 5 мес.
Сообщений: 675
Ratio: 780,298
Поблагодарили: 12231
100%
albania.gif
ストリートファイターゼロ The Animation / Street Fighter Alpha / Уличный боец Альфа OVA-1



Жанр: Боевые искусства, приключения
Тип: OVA
Продолжительность: OVA (2 эпизода), 45 мин
Дата премьеры / период выхода: 22.12.1999

Режиссер: Ямаути Сигэясу
Автор оригинала: Ёсида Рэйко
Производство/студия:

Качество видео: TVRip
Видео: MPEG-4, 400x304, 25,000 кадра/сек, ~920 кбит/с
Аудио: MPEG Audio, 48 КГц, 2 ch, ~128 кбит/с Звук: Английский.
Тип субтитров: Русские подключаемые.
Код:

Общее
Полное имя                               : R:\torrent\Street Fighter\Streetfighter Alpha\Streetfighter Alpha.avi
Формат                                   : AVI
Формат/Информация                        : Audio Video Interleave
Размер файла                             : 700 Мбайт
Продолжительность                        : 1 ч. 33 м.
Режим общего битрейта                    : Переменный
Общий поток                              : 1051 Кбит/сек
Программа кодирования                    : VirtualDubMod 1.5.4.1 (build 2178/release)
Библиотека кодирования                   : VirtualDubMod build 2178/release

Видео
Идентификатор                            : 0
Формат                                   : MPEG-4 Visual
Параметр BVOP формата                    : Нет
Параметр QPel формата                    : Нет
Параметр GMC формата                     : Без точки перехода
Параметр матрицы формата                 : Default (H.263)
Идентификатор кодека                     : DX50
Идентификатор кодека/Подсказка           : DivX 5
Продолжительность                        : 1 ч. 33 м.
Битрейт                                  : 920 Кбит/сек
Ширина                                   : 400 пикселей
Высота                                   : 304 пикселя
Соотношение сторон                       : 4:3
Частота кадров                           : 25,000 кадров/сек
Цветовое пространство                    : YUV
Субдискретизация насыщенности            : 4:2:0
Битовая глубина                          : 8 бит
Тип развёртки                            : Прогрессивная
Метод сжатия                             : С потерями
Бит/(Пиксели*Кадры)                      : 0.303
Размер потока                            : 613 Мбайт (88%)
Библиотека кодирования                   : DivX 5.2.1 (WaffleDay) (UTC 2004-09-08)

Аудио
Идентификатор                            : 1
Формат                                   : MPEG Audio
Версия формата                           : Version 1
Профиль формата                          : Layer 3
Режим                                    : Joint stereo
Расширение режима                        : MS Stereo
Идентификатор кодека                     : 55
Идентификатор кодека/Подсказка           : MP3
Продолжительность                        : 1 ч. 33 м.
Вид битрейта                             : Переменный
Битрейт                                  : 118 Кбит/сек
Номинальный битрейт                      : 128 Кбит/сек
Каналы                                   : 2 канала
Частота                                  : 48,0 КГц
Метод сжатия                             : С потерями
Размер потока                            : 78,8 Мбайт (11%)
Выравнивание                             : Соединение по промежуткам
Продолжительность промежутка             : 24  мс. (0,60 видеокадр)
Время предзагрузки промежутка            : 155  мс.
Библиотека кодирования                   : LAME3.97
Настройки программы                      : -m j -V 4 -q 2 -lowpass 17 --abr 128
Язык                                     : English

Описание:
Street Fighter в переводе с английского Уличный боец, сокращённо SF или SF — видеоигра в жанре файтинг, созданная в 1991 году японской компанией «Capcom» и первоначально существовавшая в виде игры для аркадных автоматов. Street Fighter II, как следует из её названия, была второй игрой в одноимённой серии. По сравнению со своей предшественницей Street Fighter, выпущенной в 1987 году, Street Fighter II имела значительные изменения, внесённые в игровую механику, такие как использование шестикнопочного управления, специальных приёмов и возможности выбирать персонажа из нескольких бойцов, каждый из которых обладал собственным стилем боя и уникальными приёмами. Street Fighter II считается игрой, открывшей эру процветания файтингов в 1990-е годы. Её успех привёл к созданию нескольких последующих версий, предлагавших игрокам дополнительные улучшения, опции и новых персонажей, которых не было в оригинальной игре. Street Fighter II и её изменённые версии широко портировались на домашние консоли, а продажи игры исчислялись миллионами копий. По состоянию на 2008 год портированная версия оригинальной Street Fighter II для приставки Super Nintendo продолжает удерживать позицию самой продаваемой игры среди продукции фирмы «Capcom».
На основе игры был сделан аниме сериал, а так же многочисленные OVA.
(с) Википедия

Эта серия состоит из:
#1 Уличный боец II - Фильм - п/ф, адаптация игры, 1994
#2 Уличный боец II [ТВ] - ТВ (29 эп.), адаптация игры, 1995
#3 Уличный боец [ТВ] - ТВ (26 эп.), адаптация игры, 1995
#4 Уличный боец Альфа OVA-1 - OVA (2 эп.), адаптация игры, 1999
#5 Уличный боец Альфа OVA-2 - OVA (1 эп.), адаптация игры, 2005
#6 Уличный боец IV OVA-1 - OVA (1 эп.), адаптация игры, 2009
#7 Уличный боец IV OVA-2 - OVA (1 эп.), адаптация игры, 2010

Дополнительная. информация:
Этот аниме и вышел в Штатах под названием "Street Fighter Alpha - The Movie", но фактически это OAV, оба эпизода которого скомпоновали вместе и назвали полнометражным фильмом. Будь "Street Fighter Alpha" фильмом, то он обладал бы широкоэкранным форматом 16:9, а не 4:3, каков был его формат на самом деле.

Ссылки:
Ani-DB ::: World Art

Скриншоты:



Время раздачи: 24/7 до первых 3х скачавших
[NNM-Club.ru]_Street Fighter Alpha.torrent
 Торрент: Платиновая раздача  Зарегистрирован
 
Скачать


Примагнититься
 Зарегистрирован:   13 Окт 2012 18:08:30
 Размер:   700 MB  (
 Рейтинг:   4,5 (Голосов: 19)
 Поблагодарили:   23
 Проверка:   Оформление проверено модератором 13 Окт 2012 18:26:40
Как cкачать  ·  Как раздать  ·  Правильно оформить  ·  Поднять ратио!  
Загрузка...
Никсан94
Стаж: 2 года 8 мес.
Сообщений: 5
Ratio: 14,4
24.9%
Спасибо) Поставил на закачку) Если скачается постараюсь месяцок повисеть на раздаче)
Показать сообщения:   
Начать новую тему   Ответить на тему    Торрент-трекер NNM-Club -> Аниме с субтитрами -> Аниме (SD) Часовой пояс: GMT + 3
Страница 1 из 1